Tags
Language
Tags

Bachman-Turner Overdrive - Not Fragile (1974/2021) [Official Digital Download 24/192]

Posted By: pyatak
Bachman-Turner Overdrive - Not Fragile (1974/2021) [Official Digital Download 24/192]

Bachman-Turner Overdrive - Not Fragile (19874/2021) [Official Digital Download 24/192]
FLAC (tracks) 24-bit/192 kHz | Front Cover | Time - 36:15 minutes | 1,46 GB
Rock | Label: Mercury Records, Official Digital Download

Not Fragile is the third album by Canadian rock band Bachman–Turner Overdrive (BTO), released in 1974. It proved to be the group's most popular album (not counting compilations), and is the only BTO album to have reached No. 1 on the US Pop Album charts.

TRACKLIST

1. Bachman-Turner Overdrive - Not Fragile
2. Bachman-Turner Overdrive - Rock Is My Life, And This Is My Song
3. Bachman-Turner Overdrive - Roll On Down The Highway
4. Bachman-Turner Overdrive - You Ain't Seen Nothing Yet
5. Bachman-Turner Overdrive - Free Wheelin
6. Bachman-Turner Overdrive - Sledgehammer
7. Bachman-Turner Overdrive - Blue Moanin'
8. Bachman-Turner Overdrive - Second Hand (Album Version)
9. Bachman-Turner Overdrive - Givin' It All Away

foobar2000 1.6.2 / Dynamic Range Meter 1.1.1
log date: 2021-08-19 04:55:25

––––––––––––––––––––––––––––––––––––––––
Analyzed: Bachman-Turner Overdrive / Not Fragile
––––––––––––––––––––––––––––––––––––––––

DR Peak RMS Duration Track
––––––––––––––––––––––––––––––––––––––––
DR10 -0.34 dB -11.36 dB 4:06 01-Not Fragile
DR9 -0.34 dB -11.35 dB 5:04 02-Rock Is My Life, And This Is My Song
DR10 -0.34 dB -11.52 dB 3:59 03-Roll On Down The Highway
DR9 -0.34 dB -10.59 dB 3:56 04-You Ain't Seen Nothing Yet
DR10 -0.34 dB -11.28 dB 3:46 05-Free Wheelin
DR9 -0.34 dB -10.71 dB 4:35 06-Sledgehammer
DR9 -0.34 dB -11.00 dB 3:45 07-Blue Moanin'
DR9 -0.34 dB -10.05 dB 3:23 08-Second Hand (Album Version)
DR9 -0.34 dB -10.75 dB 3:48 09-Givin' It All Away
––––––––––––––––––––––––––––––––––––––––

Number of tracks: 9
Official DR value: DR9

Samplerate: 192000 Hz
Channels: 2
Bits per sample: 24
Bitrate: 5731 kbps
Codec: FLAC
================================================================================



Thanks to the Original customer.