Tags
Language
Tags

Billie Holiday - An Evening with Lady Day (1973/2022) [Official Digital Download 24/96]

Posted By: pyatak
Billie Holiday - An Evening with Lady Day (1973/2022) [Official Digital Download 24/96]

Billie Holiday - An Evening with Lady Day (1973/2022) [Official Digital Download 24/96]
FLAC (tracks) 24-bit/96 kHz | Front Cover | Time - 41:18 minutes | 729 MB
Vocal Jazz | Studio Master, Official Digital Download

The great jazz chanteuse Billie Holiday presents her 1973 album An Evening with Lady Day, featuring Holiday's most beloved standards. Audio Fidelity presents this legacy recording in stunning modern clarity with its remastering and digital transfer process.

TRACKLIST

1. Billie Holiday - Ghost of a Chance
2. Billie Holiday - Please Don't Talk About Me When I'm Gone
3. Billie Holiday - Nice Work If You Can Get It
4. Billie Holiday - God Bless the Child
5. Billie Holiday - Please Don't Talk About Me When I'm Gone (Alternative Version)
6. Billie Holiday - Don't Explain
7. Billie Holiday - I Love You Porgy
8. Billie Holiday - Fine and Mellow
9. Billie Holiday - What a Little Moonlight Can Do
10. Billie Holiday - Fooling Myself
11. Billie Holiday - Easy to Remember
12. Billie Holiday - Moaning Low
13. Billie Holiday - Don't Explain (Alternative Version)
14. Billie Holiday - When Your Lover Has Gone

foobar2000 1.6.2 / Dynamic Range Meter 1.1.1
log date: 2022-05-13 08:14:45

––––––––––––––––––––––––––––––––––––––––
Analyzed: Billie Holiday / An Evening with Lady Day
––––––––––––––––––––––––––––––––––––––––

DR Peak RMS Duration Track
––––––––––––––––––––––––––––––––––––––––
DR9 -1.53 dB -14.80 dB 3:37 01-Ghost of a Chance
DR10 -6.30 dB -19.42 dB 1:54 02-Please Don't Talk About Me When I'm Gone
DR10 -2.86 dB -15.48 dB 2:34 03-Nice Work If You Can Get It
DR10 -4.05 dB -16.16 dB 2:46 04-God Bless the Child
DR11 -1.82 dB -15.56 dB 1:56 05-Please Don't Talk About Me When I'm Gone (Alternative Version)
DR11 -2.52 dB -17.03 dB 2:36 06-Don't Explain
DR9 -5.03 dB -17.02 dB 2:30 07-I Love You Porgy
DR11 -1.22 dB -15.23 dB 8:42 08-Fine and Mellow
DR11 -1.22 dB -14.26 dB 2:25 09-What a Little Moonlight Can Do
DR11 -2.66 dB -15.48 dB 2:26 10-Fooling Myself
DR11 -1.92 dB -15.13 dB 3:25 11-Easy to Remember
DR11 -2.23 dB -15.99 dB 1:52 12-Moaning Low
DR12 -2.18 dB -17.70 dB 2:46 13-Don't Explain (Alternative Version)
DR12 -3.14 dB -16.95 dB 1:58 14-When Your Lover Has Gone
––––––––––––––––––––––––––––––––––––––––

Number of tracks: 14
Official DR value: DR11

Samplerate: 96000 Hz
Channels: 2
Bits per sample: 24
Bitrate: 2380 kbps
Codec: FLAC
================================================================================



Thanks to the Original customer.