Tags
Language
Tags

Black Oak Arkansas: Collection (1971-1974)

Posted By: v3122
Black Oak Arkansas: Collection (1971-1974)

Black Oak Arkansas: Collection (1971-1974)
FLAC (Tracks) 24-bit/96 kHz | Official Digital Download
Southern Rock | RT Industries | ~ 3.23 Gb

~ 1971 - Black Oak Arkansas, 1972 - If an Angel Came to See You…Would You Make Her Feel at Home, 1973 - High On The Hog, 1974 - Street Party ~

Black Oak Arkansas is an American Southern rock band named after the band's hometown of Black Oak, Arkansas. The band reached the height of its fame in the 1970s with ten charting albums released in that decade. Their style is punctuated by multiple guitar players and the raspy voice and on-stage antics of vocalist Jim "Dandy" Mangrum.
Following continued diminishing record sales, Jim "Dandy" Mangrum dropped "Arkansas" from the group's name (in an attempt to downplay their Southern-ness).
As "Black Oak" released two albums on Capricorn Records, 'Race with the Devil' in 1977 and 'I'd Rather Be Sailing' in 1978.

~ discogs
Black Oak Arkansas: Collection (1971-1974)

Black Oak Arkansas: Collection (1971-1974):

Black Oak Arkansas: Collection (1971-1974)

1971 - Black Oak Arkansas {24 bit-96 kHz}:

01. Uncle Lijiah [03:22]
02. Memories At The Window [04:02]
03. The Hills Of Arkansas [03:47]
04. I Could Love You [05:13]
05. Hot And Nasty [02:57]
06. Singing The Blues [02:24]
07. Lord Have Mercy On My Soul [06:13]
08. When Electricity Came To Arkansas [05:37]

foobar2000 1.6.8 / Dynamic Range Meter 1.1.1
log date: 2022-05-17 15:52:19

––––––––––––––––––––––––––––––––––––––––
Analyzed: Black Oak Arkansas / Black Oak Arkansas
––––––––––––––––––––––––––––––––––––––––

DR Peak RMS Duration Track
––––––––––––––––––––––––––––––––––––––––
DR12 -0.05 dB -15.06 dB 3:22 01-Uncle Lijiah
DR11 -0.91 dB -15.68 dB 4:02 02-Memories At The Window
DR10 -0.10 dB -12.21 dB 3:47 03-The Hills Of Arkansas
DR11 -0.34 dB -14.18 dB 5:13 04-I Could Love You
DR10 -1.29 dB -12.76 dB 2:57 05-Hot And Nasty
DR10 -1.24 dB -12.92 dB 2:24 06-Singing The Blues
DR11 -0.84 dB -14.62 dB 6:13 07-Lord Have Mercy On My Soul
DR12 -0.10 dB -13.77 dB 5:37 08-When Electricity Came To Arkansas
––––––––––––––––––––––––––––––––––––––––

Number of tracks: 8
Official DR value: DR11

Samplerate: 96000 Hz
Channels: 2
Bits per sample: 24
Bitrate: 3052 kbps
Codec: FLAC

Black Oak Arkansas: Collection (1971-1974)

1972 - If an Angel Came to See You…Would You Make Her Feel at Home {24 bit-96 kHz}:

01. Gravel Roads [03:12]
02. Fertile Woman [05:19]
03. Spring Vacation [03:02]
04. We Help Each Other [03:13]
05. Full Moon Ride [03:47]
06. Our Mind's Eye [04:15]
07. To Make Us What We Are [04:55]
08. Our Eyes Are On You [03:46]
09. Mutants Of The Monster [04:45]

foobar2000 1.6.8 / Dynamic Range Meter 1.1.1
log date: 2022-05-17 15:26:07

––––––––––––––––––––––––––––––––––––––––
Analyzed: Black Oak Arkansas / If an Angel Came to See You…Would You Make Her Feel at Home
––––––––––––––––––––––––––––––––––––––––

DR Peak RMS Duration Track
––––––––––––––––––––––––––––––––––––––––
DR8 -0.99 dB -10.81 dB 3:12 01-Gravel Roads
DR9 -0.96 dB -11.33 dB 5:19 02-Fertile Woman
DR9 -0.99 dB -11.18 dB 3:02 03-Spring Vacation
DR9 -0.95 dB -11.48 dB 3:13 04-We Help Each Other
DR7 -1.00 dB -10.00 dB 3:47 05-Full Moon Ride
DR9 -1.02 dB -10.89 dB 4:15 06-Our Mind's Eye
DR10 -1.02 dB -13.72 dB 4:55 07-To Make Us What We Are
DR9 -1.03 dB -11.10 dB 3:46 08-Our Eyes Are On You
DR8 -1.03 dB -11.19 dB 4:45 09-Mutants Of The Monster
––––––––––––––––––––––––––––––––––––––––

Number of tracks: 9
Official DR value: DR9

Samplerate: 96000 Hz
Channels: 2
Bits per sample: 24
Bitrate: 3088 kbps
Codec: FLAC

Black Oak Arkansas: Collection (1971-1974)

1973 - High On The Hog {24 bit-96 kHz}:

01. Swimmin' In Quicksand [03:23]
02. Back To The Land [02:28]
03. Movin' [03:16]
04. Happy Hooker [05:31]
05. Red Hot Lovin' [02:49]
06. Jim Dandy [02:43]
07. Moonshine Sonata [05:30]
08. Why Shouldn't I Smile [02:25]
09. High 'N' Dry [02:30]
10. Mad Man [03:48]

foobar2000 1.6.8 / Dynamic Range Meter 1.1.1
log date: 2022-05-17 15:12:25

––––––––––––––––––––––––––––––––––––––––
Analyzed: Black Oak Arkansas / High On The Hog
––––––––––––––––––––––––––––––––––––––––

DR Peak RMS Duration Track
––––––––––––––––––––––––––––––––––––––––
DR10 -0.02 dB -10.88 dB 3:23 01-Swimmin' In Quicksand
DR11 -0.01 dB -13.17 dB 2:28 02-Back To The Land
DR10 -0.01 dB -10.81 dB 3:16 03-Movin'
DR11 -0.01 dB -12.46 dB 5:31 04-Happy Hooker
DR11 -0.01 dB -12.06 dB 2:49 05-Red Hot Lovin'
DR10 -0.01 dB -11.36 dB 2:43 06-Jim Dandy
DR10 -0.01 dB -11.52 dB 5:30 07-Moonshine Sonata
DR10 -0.01 dB -11.44 dB 2:25 08-Why Shouldn't I Smile
DR11 -1.32 dB -14.17 dB 2:30 09-High 'N' Dry
DR10 -0.01 dB -11.40 dB 3:48 10-Mad Man
––––––––––––––––––––––––––––––––––––––––

Number of tracks: 10
Official DR value: DR10

Samplerate: 96000 Hz
Channels: 2
Bits per sample: 24
Bitrate: 3159 kbps
Codec: FLAC

Black Oak Arkansas: Collection (1971-1974)

1974 - Street Party {24 bit-96 kHz}:

01. Dancing In The Streets [02:37]
02. Sting Me [02:50]
03. Good Good Woman [03:17]
04. Jail Bait [02:27]
05. Sure Been Workin' Hard [03:23]
06. Son Of A Gun [04:31]
07. Brink Of Creation 1 [00:43]
08. I'm A Man [03:43]
09. Goin' Home [03:24]
10. Dixie [03:39]
11. Everybody Wants To See Heaven "Nobody Wants To Die" [03:08]
12. Hey Ya'll [04:10]
13. Brink Of Creation 2 [00:39]

foobar2000 1.6.8 / Dynamic Range Meter 1.1.1
log date: 2022-05-17 15:42:16

––––––––––––––––––––––––––––––––––––––––
Analyzed: Black Oak Arkansas / Street Party
––––––––––––––––––––––––––––––––––––––––

DR Peak RMS Duration Track
––––––––––––––––––––––––––––––––––––––––
DR9 -0.01 dB -10.63 dB 2:37 01-Dancing In The Streets
DR9 -0.01 dB -10.73 dB 2:50 02-Sting Me
DR11 -0.01 dB -12.78 dB 3:17 03-Good Good Woman
DR10 -0.01 dB -11.05 dB 2:27 04-Jail Bait
DR11 -0.01 dB -15.18 dB 3:23 05-Sure Been Workin' Hard
DR10 -0.01 dB -11.63 dB 4:31 06-Son Of A Gun
DR9 -3.17 dB -16.34 dB 0:43 07-Brink Of Creation 1
DR10 -0.01 dB -11.04 dB 3:43 08-I'm A Man
DR10 -0.01 dB -12.69 dB 3:24 09-Goin' Home
DR10 -0.01 dB -12.88 dB 3:39 10-Dixie
DR12 -0.01 dB -14.47 dB 3:08 11-Everybody Wants To See Heaven "Nobody Wants To Die"
DR9 -0.01 dB -11.08 dB 4:10 12-Hey Ya'll
DR10 -1.48 dB -15.89 dB 0:39 13-Brink Of Creation 2
––––––––––––––––––––––––––––––––––––––––

Number of tracks: 13
Official DR value: DR10

Samplerate: 96000 Hz
Channels: 2
Bits per sample: 24
Bitrate: 2934 kbps
Codec: FLAC

All thanks go to the original releaser

Black Oak Arkansas in my Blog

Download Black Oak Arkansas: Collection (1971-1974):