Tags
Language
Tags

Bruce Springsteen & The E Street Band - 1980-12-28 Nassau Coliseum, Uniondale, NY (2021) [Official Digital Download 24/192]

Posted By: pyatak
Bruce Springsteen & The E Street Band - 1980-12-28 Nassau Coliseum, Uniondale, NY (2021) [Official Digital Download 24/192]

Bruce Springsteen & The E Street Band - 1980-12-28 Nassau Coliseum, Uniondale, NY (2021) [Official Digital Download 24/192]
FLAC (tracks) 24-bit/192 kHz | Front Cover | Time - 03:25:47 minutes | 6,52 GB
Blues Rock | Label: Bruce Springsteen, Official Digital Download

Bruce Springsteen - Lead vocal, guitar, harmonica; Roy Bittan - Piano, keyboards; Clarence Clemons - Tenor and baritone saxophones, percussion, backing vocal; Danny Federici - Organ, glockenspiel, accordion; Garry Tallent - Bass; Stevie Van Zandt - Electric and acoustic guitars, backing vocal; Max Weinberg - Drums
Recorded with Record Plant Remote Truck by Toby Scott, assisted by David Bianco and Jim Scott
24-track, 30 IPS reel-to-reel tapes transferred and restored by Jamie Howarth, Plangent Processes, Spring 2019

TRACKLIST

1. Bruce Springsteen & The E Street Band - Merry Christmas, Baby
2. Bruce Springsteen & The E Street Band - Badlands
3. Bruce Springsteen & The E Street Band - Two Hearts
4. Bruce Springsteen & The E Street Band - Tenth Avenue Freeze-Out
5. Bruce Springsteen & The E Street Band - Darkness on the Edge of Town
6. Bruce Springsteen & The E Street Band - Independence Day
7. Bruce Springsteen & The E Street Band - Who'll Stop the Rain?
8. Bruce Springsteen & The E Street Band - Factory
9. Bruce Springsteen & The E Street Band - The Promised Land
10. Bruce Springsteen & The E Street Band - Out in the Street
11. Bruce Springsteen & The E Street Band - This Land Is Your Land
12. Bruce Springsteen & The E Street Band - The River
13. Bruce Springsteen & The E Street Band - Prove It All Night
14. Bruce Springsteen & The E Street Band - Thunder Road
1. Bruce Springsteen & The E Street Band - Cadillac Ranch
2. Bruce Springsteen & The E Street Band - Hungry Heart
3. Bruce Springsteen & The E Street Band - Sherry Darling
4. Bruce Springsteen & The E Street Band - Fire
5. Bruce Springsteen & The E Street Band - Because the Night
6. Bruce Springsteen & The E Street Band - 4th of July, Asbury Park (Sandy)
7. Bruce Springsteen & The E Street Band - For You
8. Bruce Springsteen & The E Street Band - Stolen Car
9. Bruce Springsteen & The E Street Band - Wreck on the Highway
10. Bruce Springsteen & The E Street Band - Point Blank
1. Bruce Springsteen & The E Street Band - The Ties That Bind
2. Bruce Springsteen & The E Street Band - Ramrod
3. Bruce Springsteen & The E Street Band - You Can Look (But You Better Not Touch)
4. Bruce Springsteen & The E Street Band - Backstreets
5. Bruce Springsteen & The E Street Band - Rosalita (Come Out Tonight)
6. Bruce Springsteen & The E Street Band - Santa Claus Is Coming to Town
7. Bruce Springsteen & The E Street Band - Jungleland
8. Bruce Springsteen & The E Street Band - Born to Run
9. Bruce Springsteen & The E Street Band - Detroit Medley

foobar2000 1.6.2 / Dynamic Range Meter 1.1.1
log date: 2021-12-04 19:18:39

––––––––––––––––––––––––––––––––––––––––
Analyzed: Bruce Springsteen & The E Street Band / 1980/12/28 Nassau Veterans Memorial Coliseum, Uniondale, NY
––––––––––––––––––––––––––––––––––––––––

DR Peak RMS Duration Track
––––––––––––––––––––––––––––––––––––––––
DR7 -0.20 dB -9.24 dB 4:13 01-Merry Christmas, Baby
DR6 -0.20 dB -7.36 dB 4:44 02-Badlands
DR5 -0.20 dB -6.02 dB 2:48 03-Two Hearts
DR6 -0.20 dB -8.93 dB 6:09 04-Tenth Avenue Freeze-Out
DR6 -0.20 dB -9.58 dB 6:07 05-Darkness on the Edge of Town
DR9 -0.20 dB -14.15 dB 7:26 06-Independence Day
DR7 -0.20 dB -8.44 dB 3:40 07-Who'll Stop the Rain?
DR11 -0.10 dB -13.92 dB 3:05 08-Factory
DR6 -0.20 dB -7.62 dB 6:15 09-The Promised Land
DR6 -0.20 dB -8.81 dB 7:34 10-Out in the Street
DR11 -0.79 dB -15.29 dB 3:24 11-This Land Is Your Land
DR10 -0.20 dB -13.04 dB 6:36 12-The River
DR5 -0.20 dB -6.40 dB 6:56 13-Prove It All Night
DR5 -0.20 dB -7.74 dB 6:35 14-Thunder Road
DR5 -0.20 dB -6.63 dB 5:22 01-Cadillac Ranch
DR6 -0.20 dB -8.16 dB 5:15 02-Hungry Heart
DR6 -0.20 dB -7.44 dB 5:46 03-Sherry Darling
DR8 -0.20 dB -11.26 dB 4:23 04-Fire
DR6 -0.20 dB -7.81 dB 8:26 05-Because the Night
DR7 -0.20 dB -9.77 dB 6:41 06-4th of July, Asbury Park (Sandy)
DR5 -0.20 dB -7.86 dB 6:40 07-For You
DR11 -0.20 dB -14.18 dB 5:15 08-Stolen Car
DR11 -0.20 dB -14.05 dB 4:58 09-Wreck on the Highway
DR9 -0.20 dB -13.50 dB 8:48 10-Point Blank
DR6 -0.20 dB -6.78 dB 3:35 01-The Ties That Bind
DR4 -0.20 dB -5.35 dB 4:27 02-Ramrod
DR5 -0.20 dB -8.51 dB 6:37 03-You Can Look (But You Better Not Touch)
DR5 -0.20 dB -7.28 dB 7:07 04-Backstreets
DR5 -0.20 dB -7.52 dB 14:22 05-Rosalita (Come Out Tonight)
DR5 -0.20 dB -8.31 dB 4:19 06-Santa Claus Is Coming to Town
DR6 -0.20 dB -10.15 dB 11:21 07-Jungleland
DR5 -0.20 dB -5.73 dB 4:41 08-Born to Run
DR5 -0.20 dB -6.86 dB 12:00 09-Detroit Medley
––––––––––––––––––––––––––––––––––––––––

Number of tracks: 33
Official DR value: DR7

Samplerate: 192000 Hz
Channels: 2
Bits per sample: 24
Bitrate: 4993 kbps
Codec: FLAC
================================================================================



Thanks to the Original customer.