Chiara D'Odorico - Ofrenda a mi tierra (2021) [Official Digital Download]

Posted By: pyatak
Chiara D'Odorico - Ofrenda a mi tierra (2021) [Official Digital Download]

Chiara D'Odorico - Ofrenda a mi tierra (2021) [Official Digital Download]
FLAC (tracks) 24-bit/44.1 kHz | Front Cover | Time - 40:31 minutes | 358 MB
Classical | Label: Acqua Records, Official Digital Download

Chiara D'Odorico, one of the most internationally recognized Paraguayan pianists, makes this musical offering to composers of Paraguayan academic music that will be available on digital platforms from this Friday, July 16.
With the aim of continuing to spread academic Paraguayan music for piano of the twentieth and twenty-first century, this Offering is presented. An offering of the Paraguayan composers Juan Carlos Moreno González, Luis Cáceres-Carísimo, Nancy Luzko, Julián Alarcón and Juan Max Boettner to leave us their music.
It is the offering of the Italian-Argentine composer José Bragato, after his collaborations with Paraguayan musicians and the Italian-Paraguayan Nicolino Pellegrini being the reference and teacher of the great creators of Paraguayan music.
Finally, it is the offering of the pianist sharing this music to the world. The vast majority of the works are recorded for the first time, as there is no record of previous records.
His first record material was “Purahéi che retãgua", released in 2019, and has been nominated for Best Classical Music Album at the Gardel Awards 2020.
Ofrenda A Mi Tierra will be available on all digital platforms from Friday, July 16 (Spotify, iTunes, YouTube, Deezer, Naxos, Primephonic) thanks to the distribution of the Record Label Acqua Records.
More about Chiara D'Odorico. Distinguished with different awards that enhance her artistic career as "Tourist Ambassador of Paraguay”," Architects of Change Award: Women who Innovate and Create", "Outstanding Young Man of Paraguay, "National Youth Award". He develops an intense musical activity performing regularly in different countries as a soloist and with orchestra. He has visited more than thirty countries such as Brazil, Colombia, the United States, Italy, France, The Vatican, Spain, Austria, Russia, South Africa, Lebanon, India and Egypt.

TRACKLIST

01. Paraguay "Yasî Retá" (Arr. for Solo Piano)
02. 3 Pieces for Piano: No. 1, Tristezas de la soledad
03. 3 Pieces for Piano: No. 2, Reminiscencias
04. 3 Pieces for Piano: No. 3, Página de álbum
05. Tavarandu
06. Juguete
07. Encuentro apasionado
08. Desde el fondo de mi corazón
09. 3 Pequeñas piezas: No. 1, Quince abriles
10. 3 Pequeñas piezas: No. 2, Tu y yo
11. 3 Pequeñas piezas: No. 3, Ternura
12. Ida
13. Pequeño vals de primavera No. 1
14. Pequeño vals de primavera No. 2
15. Pequeño vals de primavera No. 3
16. Deidamia

foobar2000 1.6.2 / Dynamic Range Meter 1.1.1
log date: 2021-07-21 18:26:14

––––––––––––––––––––––––––––––––––––––––
Analyzed: Chiara D'Odorico / Ofrenda a mi tierra
––––––––––––––––––––––––––––––––––––––––

DR Peak RMS Duration Track
––––––––––––––––––––––––––––––––––––––––
DR13 -0.39 dB -17.45 dB 5:38 01-Paraguay "Yasî Retá" (Arr. for Solo Piano)
DR12 -0.76 dB -17.19 dB 2:03 02-No. 1, Tristezas de la soledad
DR13 -0.64 dB -17.73 dB 3:23 03-No. 2, Reminiscencias
DR12 -1.02 dB -18.51 dB 1:30 04-No. 3, Página de álbum
DR11 -0.26 dB -15.66 dB 1:49 05-Tavarandu
DR12 -1.20 dB -18.37 dB 2:14 06-Juguete
DR11 -0.26 dB -15.69 dB 3:03 07-Encuentro apasionado
DR14 -0.35 dB -17.50 dB 4:18 08-Desde el fondo de mi corazón
DR13 -0.87 dB -18.59 dB 1:30 09-No. 1, Quince abriles
DR11 -0.93 dB -17.72 dB 1:00 10-No. 2, Tu y yo
DR12 -0.96 dB -19.18 dB 1:25 11-No. 3, Ternura
DR13 -0.26 dB -17.24 dB 4:11 12-Ida
DR12 -0.93 dB -18.05 dB 1:22 13-Pequeño vals de primavera No. 1
DR12 -0.92 dB -17.90 dB 1:12 14-Pequeño vals de primavera No. 2
DR11 -1.19 dB -16.55 dB 1:21 15-Pequeño vals de primavera No. 3
DR13 -0.26 dB -17.40 dB 4:41 16-Deidamia
––––––––––––––––––––––––––––––––––––––––

Number of tracks: 16
Official DR value: DR12

Samplerate: 44100 Hz
Channels: 2
Bits per sample: 24
Bitrate: 1182 kbps
Codec: FLAC
================================================================================



Thanks to the Original customer.