Tags
Language
Tags

Christian Lee Hutson - Quitters (2022) [Official Digital Download 24/96]

Posted By: pyatak
Christian Lee Hutson - Quitters (2022) [Official Digital Download 24/96]

Christian Lee Hutson - Quitters (2022) [Official Digital Download 24/96]
FLAC (tracks) 24-bit/96 kHz | Front Cover | Time - 46:32 minutes | 1,05 GB
Indie Folk | Label: Anti, Official Digital Download

Christian Lee Hutson starts his new album Quitters with a laugh. In this follow up to his ANTI records debut, Beginners, Hutson moves away from the focus on growing up to the dread and complications of growing older. The laugh that announces Quitters is the kind you’ll find at the end of John Huston films, one of resignation and release, and somehow a cosmic laugh that says “California,” a place where lonely people gather together like birds.

Across Quitters’ 13 tracks, Hutson crafts this portrait of the place he’s from. In these short story-like songs, Hutson presents characters who carry this golden light and sinister geography inside them. It’s a place where everything in the end gets blown away and paved over with something new, where even the ocean and fires are always whispering, “One day we’ll take it all back.” This is a Los Angeles in constant transition, where childhood is lost, where home is gone and can never be visited again. Yet Hutson’s world is also one of happy accidents, where doors are left open on purpose, hoping that someone new will walk through. In the end, what’s left are these songs created by some future spirit, written to comfort the person we are now.

Produced by Phoebe Bridgers and Conor Oberst, Quitters is also a departure from the digital recording of his debut. Hutson stated, “When we made Beginners the aim was to make simple digital recordings of how I would play the songs in the room. With this record, Phoebe and Conor had an idea that it would be fun to make it to tape. Phoebe is my best friend and making Beginners with her was so comfortable and easy. So I wanted to work with her again.” “I took a long time with Beginners,” Hutson added. “I had those songs for 10 years, but these songs came out a lot faster.” Because the songs from Quitters were written in a shorter time, “there was a little bit of insecurity with the lyrics. Having Conor there served the purpose of someone who I really respect as a lyricist and could soothe my anxiety.”

TRACKLIST

1. Christian Lee Hutson - Strawberry Lemonade
2. Christian Lee Hutson - Endangered Birds
3. Christian Lee Hutson - Rubberneckers
4. Christian Lee Hutson - Sitting Up With A Sick Friend
5. Christian Lee Hutson - Age Difference
6. Christian Lee Hutson - Blank Check
7. Christian Lee Hutson - Cherry
8. Christian Lee Hutson - State Bird
9. Christian Lee Hutson - Teddy's Song
10. Christian Lee Hutson - Black Cat
11. Christian Lee Hutson - Creature Feature
12. Christian Lee Hutson - OCDemon
13. Christian Lee Hutson - Triple Axel

foobar2000 1.6.2 / Dynamic Range Meter 1.1.1
log date: 2022-03-29 18:35:26

––––––––––––––––––––––––––––––––––––––––
Analyzed: Christian Lee Hutson / Quitters
––––––––––––––––––––––––––––––––––––––––

DR Peak RMS Duration Track
––––––––––––––––––––––––––––––––––––––––
DR8 -0.47 dB -12.15 dB 4:25 01-Strawberry Lemonade
DR9 0.00 dB -11.54 dB 3:57 02-Endangered Birds
DR6 -0.50 dB -8.71 dB 3:29 03-Rubberneckers
DR10 0.00 dB -13.08 dB 3:20 04-Sitting Up With A Sick Friend
DR10 -1.04 dB -13.88 dB 5:07 05-Age Difference
DR8 -0.25 dB -10.17 dB 4:32 06-Blank Check
DR9 -0.10 dB -12.18 dB 3:33 07-Cherry
DR8 -0.50 dB -10.14 dB 2:50 08-State Bird
DR9 -0.50 dB -11.21 dB 3:41 09-Teddy's Song
DR8 -0.10 dB -11.96 dB 2:48 10-Black Cat
DR8 -0.50 dB -10.11 dB 3:51 11-Creature Feature
DR9 -0.10 dB -11.22 dB 2:30 12-OCDemon
DR11 -1.13 dB -15.93 dB 2:29 13-Triple Axel
––––––––––––––––––––––––––––––––––––––––

Number of tracks: 13
Official DR value: DR9

Samplerate: 96000 Hz
Channels: 2
Bits per sample: 24
Bitrate: 3004 kbps
Codec: FLAC
================================================================================



Thanks to the Original customer.