Tags
Language
Tags
February 2023
Su Mo Tu We Th Fr Sa
29 30 31 1 2 3 4
5 6 7 8 9 10 11
12 13 14 15 16 17 18
19 20 21 22 23 24 25
26 27 28 1 2 3 4

Christian Lindberg - Nutcracker Suite (2021) [Official Digital Download]

Posted By: pyatak
Christian Lindberg - Nutcracker Suite (2021) [Official Digital Download]

Christian Lindberg - Nutcracker Suite (2021) [Official Digital Download]
FLAC (tracks) 24-bit/48 kHz | Front Cover | Time - 23:34 minutes | 215 MB
Classical | Label: EUROPEAN GRAMOPHONE, Official Digital Download

Christian Lindberg (born 15 February 1958) is a Swedish trombonist, conductor and composer.

Lindberg was born in Danderyd. As a youth, he learned to play the trumpet, and subsequently began to learn the trombone at age 16. He originally borrowed a trombone to join his friends' Dixieland jazz group, inspired by records of Jack Teagarden. He attended the Royal Swedish Academy of Music, where his teachers included Sven-Erik Eriksson. By age 18, he had obtained a professional position in the Royal Swedish Opera Orchestra. At age 20, he left his orchestral career behind to study to become a full-time soloist. He studied with John Iveson at the Royal College of Music (1979–1980) and with Ralph Sauer and Roger Bobo in Los Angeles (1983).

TRACKLIST

1. Christian Lindberg - The Nutcracker Suite, Op. 71a, TH 35: 1. Miniature Overture. Allegro giusto I
2. Christian Lindberg - The Nutcracker Suite, Op. 71a, TH 35: 1. Miniature Overture. Allegro giusto II
3. Christian Lindberg - The Nutcracker Suite, Op. 71a, TH 35: 1. Miniature Overture. Allegro giusto III
4. Christian Lindberg - The Nutcracker Suite, Op. 71a, TH 35: 1. Miniature Overture. Allegro giusto IV
5. Christian Lindberg - The Nutcracker Suite, Op. 71a, TH 35: 2a. March. Tempo di marcia I
6. Christian Lindberg - The Nutcracker Suite, Op. 71a, TH 35: 2a. March. Tempo di marcia II
7. Christian Lindberg - The Nutcracker Suite, Op. 71a, TH 35: 2b. Dance of the Sugar-Plum fairy. Andante ma non troppo I
8. Christian Lindberg - The Nutcracker Suite, Op. 71a, TH 35: 2b. Dance of the Sugar-Plum fairy. Andante ma non troppo II
9. Christian Lindberg - The Nutcracker Suite, Op. 71a, TH 35: 2c. Russian Dance. Trepak. Tempo di Trepak, molto vivace
10. Christian Lindberg - The Nutcracker Suite, Op. 71a, TH 35: 2d. Arabian Dance. Allegretto I
11. Christian Lindberg - The Nutcracker Suite, Op. 71a, TH 35: 2d. Arabian Dance. Allegretto II
12. Christian Lindberg - The Nutcracker Suite, Op. 71a, TH 35: 2e Chinese Dance. Allegro moderato
13. Christian Lindberg - The Nutcracker Suite, Op. 71a, TH 35: 2f. Dance of the Reed-Pipes. Moderato assai I
14. Christian Lindberg - The Nutcracker Suite, Op. 71a, TH 35: 2f. Dance of the Reed-Pipes. Moderato assai II
15. Christian Lindberg - The Nutcracker Suite, Op. 71a, TH 35: 3. Walz of the Flowers. Tempo di valse I
16. Christian Lindberg - The Nutcracker Suite, Op. 71a, TH 35: 3. Walz of the Flowers. Tempo di valse II
17. Christian Lindberg - The Nutcracker Suite, Op. 71a, TH 35: 3. Walz of the Flowers. Tempo di valse III
18. Christian Lindberg - The Nutcracker Suite, Op. 71a, TH 35: 3. Walz of the Flowers. Tempo di valse IV
19. Christian Lindberg - The Nutcracker Suite, Op. 71a, TH 35: 3. Walz of the Flowers. Tempo di valse V
20. Christian Lindberg - The Nutcracker Suite, Op. 71a, TH 35: 3. Walz of the Flowers. Tempo di valse VI

foobar2000 1.6.2 / Dynamic Range Meter 1.1.1
log date: 2021-07-27 12:12:32

––––––––––––––––––––––––––––––––––––––––
Analyzed: Christian Lindberg / Nutcracker Suite
––––––––––––––––––––––––––––––––––––––––

DR Peak RMS Duration Track
––––––––––––––––––––––––––––––––––––––––
DR11 -0.20 dB -16.86 dB 0:53 01-The Nutcracker Suite, Op. 71a, TH 35: 1. Miniature Overture. Allegro giusto I
DR11 -1.63 dB -16.26 dB 0:53 02-The Nutcracker Suite, Op. 71a, TH 35: 1. Miniature Overture. Allegro giusto II
DR12 -0.20 dB -17.17 dB 0:51 03-The Nutcracker Suite, Op. 71a, TH 35: 1. Miniature Overture. Allegro giusto III
DR12 -0.20 dB -16.18 dB 1:09 04-The Nutcracker Suite, Op. 71a, TH 35: 1. Miniature Overture. Allegro giusto IV
DR11 -0.20 dB -14.81 dB 1:13 05-The Nutcracker Suite, Op. 71a, TH 35: 2a. March. Tempo di marcia I
DR11 -0.20 dB -14.55 dB 1:33 06-The Nutcracker Suite, Op. 71a, TH 35: 2a. March. Tempo di marcia II
DR12 -3.00 dB -20.59 dB 1:15 07-The Nutcracker Suite, Op. 71a, TH 35: 2b. Dance of the Sugar-Plum fairy. Andante ma non troppo I
DR12 -7.28 dB -25.62 dB 0:53 08-The Nutcracker Suite, Op. 71a, TH 35: 2b. Dance of the Sugar-Plum fairy. Andante ma non troppo II
DR11 -0.20 dB -13.55 dB 1:13 09-The Nutcracker Suite, Op. 71a, TH 35: 2c. Russian Dance. Trepak. Tempo di Trepak, molto vivace
DR10 -5.75 dB -19.80 dB 1:22 10-The Nutcracker Suite, Op. 71a, TH 35: 2d. Arabian Dance. Allegretto I
DR10 -4.14 dB -17.74 dB 0:57 11-The Nutcracker Suite, Op. 71a, TH 35: 2d. Arabian Dance. Allegretto II
DR11 -1.52 dB -15.38 dB 1:16 12-The Nutcracker Suite, Op. 71a, TH 35: 2e Chinese Dance. Allegro moderato
DR12 -1.06 dB -16.35 dB 0:54 13-The Nutcracker Suite, Op. 71a, TH 35: 2f. Dance of the Reed-Pipes. Moderato assai I
DR13 -0.20 dB -16.93 dB 1:46 14-The Nutcracker Suite, Op. 71a, TH 35: 2f. Dance of the Reed-Pipes. Moderato assai II
DR10 -4.35 dB -18.26 dB 1:12 15-The Nutcracker Suite, Op. 71a, TH 35: 3. Walz of the Flowers. Tempo di valse I
DR10 -1.64 dB -15.43 dB 0:59 16-The Nutcracker Suite, Op. 71a, TH 35: 3. Walz of the Flowers. Tempo di valse II
DR11 -0.20 dB -14.50 dB 1:24 17-The Nutcracker Suite, Op. 71a, TH 35: 3. Walz of the Flowers. Tempo di valse III
DR10 -1.29 dB -14.86 dB 1:32 18-The Nutcracker Suite, Op. 71a, TH 35: 3. Walz of the Flowers. Tempo di valse IV
DR10 -0.89 dB -14.07 dB 1:07 19-The Nutcracker Suite, Op. 71a, TH 35: 3. Walz of the Flowers. Tempo di valse V
DR11 -0.20 dB -15.06 dB 1:23 20-The Nutcracker Suite, Op. 71a, TH 35: 3. Walz of the Flowers. Tempo di valse VI
––––––––––––––––––––––––––––––––––––––––

Number of tracks: 20
Official DR value: DR11

Samplerate: 48000 Hz
Channels: 2
Bits per sample: 24
Bitrate: 1144 kbps
Codec: FLAC
================================================================================



Thanks to the Original customer.