Tags
Language
Tags
December 2022
Su Mo Tu We Th Fr Sa
27 28 29 30 1 2 3
4 5 6 7 8 9 10
11 12 13 14 15 16 17
18 19 20 21 22 23 24
25 26 27 28 29 30 31

Christina Aguilera - AGUILERA (2022) [Official Digital Download]

Posted By: pyatak
Christina Aguilera - AGUILERA (2022) [Official Digital Download]

Christina Aguilera - AGUILERA (2022) [Official Digital Download]
FLAC (tracks) 24-bit/44.1 kHz | Front Cover | Time - 37:30 minutes | 436 MB
Pop | Studio Master, Official Digital Download

For the past nine months, international artist, Christina Aguilera, has honoured her Latin roots in the best possible way: composing, producing, performing, and sharing hit songs that are included in “LA FUERZA”, her first EP in Spanish in her last 20 years of career, and the second EP entitled “LA TORMENTA”, which was released yesterday on all digital platforms.

From “LA TORMENTA” comes “Suéltame”, a new and sensual collaboration with Argentine pop star TINI. The single, already available HERE, was composed by Aguilera, TINI, and Kat Dahlia along with producers Mauricio Rengifo, Andrés Torres, Rafa Arcaute, Federico Vindver, and co-produced by Afo Verde.

To top it all off, Christina decided to release “AGUILERA”, an album that includes all the songs that make up her EPs in Spanish “LA FUERZA” and “LA TORMENTA”, plus a new version of the spectacular ranchera “Cuando Me Dé La Gana” with Mexican singer Christian Nodal.

The surname album title, “AGUILERA”, is a direct way of honouring her Latina roots and family heritage which are the source of pride and inspiration much of her new music.

It should be noted that this new project, produced by renowned composers and producers Rafa Arcaute and Federico Vindver, includes stellar collaborations with international artists such as TINI, Ozuna, Becky G, Nicki Nicole and Nathy Peluso.

“AGUILERA” promises to delight Christina’s fans, since she manages to fuse different Latin musical genres without losing that essence that has made her one of the most important and respected artists of her generation.

TRACKLIST

1. Christina Aguilera - Ya Llegué
2. Christina Aguilera - Pa Mis Muchachas
3. Christina Aguilera - Somos Nada
4. Christina Aguilera - Santo
5. Christina Aguilera - Como Yo
6. Christina Aguilera - La Reina
7. Christina Aguilera - Suéltame
8. Christina Aguilera - Brujería
9. Christina Aguilera - Traguito
10. Christina Aguilera - Cuando Me Dé la Gana
11. Christina Aguilera - Te Deseo Lo Mejor
12. Christina Aguilera - Cuando Me Dé la Gana

foobar2000 1.6.2 / Dynamic Range Meter 1.1.1
log date: 2022-06-01 20:50:46

––––––––––––––––––––––––––––––––––––––––
Analyzed: Christina Aguilera / AGUILERA
––––––––––––––––––––––––––––––––––––––––

DR Peak RMS Duration Track
––––––––––––––––––––––––––––––––––––––––
DR4 -0.16 dB -6.58 dB 3:03 01-Ya Llegué
DR6 -0.10 dB -7.78 dB 3:37 02-Pa Mis Muchachas
DR6 -0.19 dB -9.85 dB 3:02 03-Somos Nada
DR5 -0.16 dB -6.58 dB 3:03 04-Santo
DR5 -0.18 dB -7.28 dB 2:46 05-Como Yo
DR6 -0.14 dB -7.83 dB 3:49 06-La Reina
DR5 0.00 dB -7.40 dB 2:54 07-Suéltame
DR4 0.00 dB -7.01 dB 2:45 08-Brujería
DR4 -0.10 dB -6.71 dB 3:11 09-Traguito
DR7 -0.10 dB -8.26 dB 3:26 10-Cuando Me Dé la Gana
DR4 0.00 dB -6.75 dB 2:37 11-Te Deseo Lo Mejor
DR6 -1.12 dB -9.10 dB 3:27 12-Cuando Me Dé la Gana
––––––––––––––––––––––––––––––––––––––––

Number of tracks: 12
Official DR value: DR5

Samplerate: 44100 Hz
Channels: 2
Bits per sample: 24
Bitrate: 1578 kbps
Codec: FLAC
================================================================================



Thanks to the Original customer.