Tags
Language
Tags
November 2022
Su Mo Tu We Th Fr Sa
30 31 1 2 3 4 5
6 7 8 9 10 11 12
13 14 15 16 17 18 19
20 21 22 23 24 25 26
27 28 29 30 1 2 3

Colin Walsh - J.S. Bach - Colin Walsh Plays the Organ of Lincoln Cathedral (2022) [Official Digital Download 24/96]

Posted By: pyatak
Colin Walsh - J.S. Bach - Colin Walsh Plays the Organ of Lincoln Cathedral (2022) [Official Digital Download 24/96]

Colin Walsh - J.S. Bach - Colin Walsh Plays the Organ of Lincoln Cathedral (2022) [Official Digital Download 24/96]
FLAC (tracks) 24-bit/96 kHz | Front Cover | Time - 77:44 minutes | 1,37 GB
Classical | Studio Master, Official Digital Download

Colin Walsh sets down another programme of Bach. His first album was received with much critical acclaim and firmly endorses the fact that he is undoubtedly one of the finest organists of his generation. Dr Walsh was recently made Organist Emeritus of Lincoln Cathedral and he is now recognised as the Legend of Lincoln. A series of his live recitals will appear on this label for download and streaming only in the coming months.

TRACKLIST

1. Colin Walsh - Toccata & Fugue in C Major, BWV 566a
2. Colin Walsh - Fugue in G Minor, BWV 578 "Little Fugue"
3. Colin Walsh - No. 10, Dies sind die heilgen zehn Gebot, BWV 678
4. Colin Walsh - No. 11, Fughetta super. Dies sind die heilgen zehn Gebot, BWV 679
5. Colin Walsh - Fugue on a Theme by Giovanni Legrenzi in C Minor, BWV 574
6. Colin Walsh - Fugue in G Major, BWV 577
7. Colin Walsh - I. Prelude
8. Colin Walsh - II. Fugue
9. Colin Walsh - I. Adagio
10. Colin Walsh - II. Allegro
11. Colin Walsh - No. 10, Christmas. In dulci jubilo, BWV 608
12. Colin Walsh - No. 22, Passion. Christus, der uns selig macht, BWV 620
13. Colin Walsh - No. 24, Passion. O Mensch, bewein dein Sünde groß, BWV 622
14. Colin Walsh - No. 41, Christian Life. Ich ruf zu dir, Herr Jesu Christ, BWV 639
15. Colin Walsh - I. Toccata
16. Colin Walsh - II. Fugue

foobar2000 1.6.2 / Dynamic Range Meter 1.1.1
log date: 2022-05-06 08:27:47

––––––––––––––––––––––––––––––––––––––––
Analyzed: Colin Walsh / J.S. Bach: Colin Walsh Plays the Organ of Lincoln Cathedral
––––––––––––––––––––––––––––––––––––––––

DR Peak RMS Duration Track
––––––––––––––––––––––––––––––––––––––––
DR11 -0.58 dB -17.22 dB 11:53 01-Toccata & Fugue in C Major, BWV 566a
DR10 -11.80 dB -25.86 dB 4:07 02-Fugue in G Minor, BWV 578 "Little Fugue"
DR10 -11.27 dB -24.50 dB 6:20 03-No. 10, Dies sind die heilgen zehn Gebot, BWV 678
DR10 -24.69 dB -38.69 dB 2:15 04-No. 11, Fughetta super. Dies sind die heilgen zehn Gebot, BWV 679
DR12 -1.17 dB -18.72 dB 7:46 05-Fugue on a Theme by Giovanni Legrenzi in C Minor, BWV 574
DR10 -11.14 dB -25.70 dB 3:35 06-Fugue in G Major, BWV 577
DR9 -5.96 dB -22.12 dB 3:03 07-I. Prelude
DR12 -5.33 dB -24.31 dB 5:22 08-II. Fugue
DR9 -16.47 dB -29.14 dB 3:01 09-I. Adagio
DR10 -13.57 dB -27.24 dB 2:35 10-II. Allegro
DR10 -14.79 dB -28.52 dB 1:20 11-No. 10, Christmas. In dulci jubilo, BWV 608
DR10 -0.20 dB -12.64 dB 2:28 12-No. 22, Passion. Christus, der uns selig macht, BWV 620
DR9 -11.81 dB -24.76 dB 5:52 13-No. 24, Passion. O Mensch, bewein dein Sünde groß, BWV 622
DR9 -16.52 dB -28.79 dB 3:02 14-No. 41, Christian Life. Ich ruf zu dir, Herr Jesu Christ, BWV 639
DR11 -0.94 dB -15.19 dB 9:51 15-I. Toccata
DR11 -0.20 dB -16.45 dB 6:39 16-II. Fugue
––––––––––––––––––––––––––––––––––––––––

Number of tracks: 16
Official DR value: DR10

Samplerate: 96000 Hz
Channels: 2
Bits per sample: 24
Bitrate: 2539 kbps
Codec: FLAC
================================================================================



Thanks to the Original customer.