Tags
Language
Tags
February 2023
Su Mo Tu We Th Fr Sa
29 30 31 1 2 3 4
5 6 7 8 9 10 11
12 13 14 15 16 17 18
19 20 21 22 23 24 25
26 27 28 1 2 3 4

Crowded House - Temple Of Low Men (1988/2021) [Official Digital Download 24/96]

Posted By: pyatak
Crowded House - Temple Of Low Men (1988/2021) [Official Digital Download 24/96]

Crowded House - Temple Of Low Men (1988/2021) [Official Digital Download 24/96]
FLAC (tracks) 24-bit/96 kHz | Front Cover | Time - 37:58 minutes | 809 MB
Rock | Label: Capitol Records, Official Digital Download

Temple of Low Men is the second studio album by New Zealand-Australian rock band Crowded House, released by Capitol Records on 5 July 1988. The three band members, Neil Finn, Nick Seymour and Paul Hester, recorded the album in Melbourne and Los Angeles with Mitchell Froom as producer. Finn had written all ten tracks during the two years since their self-titled debut. Temple of Low Men peaked at number one in Australia, number two in New Zealand, number ten in Canada and number 40 on the US Billboard 200.

It provided five singles, "Better Be Home Soon" (July 1988), "When You Come" (August), "Into Temptation" (December), "Sister Madly" (1989), and "I Feel Possessed" (January 1990).

TRACKLIST

01. Crowded House - I Feel Possessed
02. Crowded House - Kill Eye
03. Crowded House - Into Temptation
04. Crowded House - Mansion In The Slums
05. Crowded House - When You Come
06. Crowded House - Never Be The Same
07. Crowded House - Love This Life
08. Crowded House - Sister Madly
09. Crowded House - In The Lowlands
10. Crowded House - Better Be Home Soon

foobar2000 1.6.2 / Dynamic Range Meter 1.1.1
log date: 2021-10-13 08:23:14

––––––––––––––––––––––––––––––––––––––––
Analyzed: Crowded House / Temple Of Low Men
––––––––––––––––––––––––––––––––––––––––

DR Peak RMS Duration Track
––––––––––––––––––––––––––––––––––––––––
DR11 -0.39 dB -13.34 dB 3:48 01-I Feel Possessed
DR11 -0.39 dB -13.10 dB 3:12 02-Kill Eye
DR10 -0.39 dB -13.52 dB 4:33 03-Into Temptation
DR11 -0.39 dB -13.17 dB 3:45 04-Mansion In The Slums
DR11 -0.39 dB -13.69 dB 4:45 05-When You Come
DR11 -0.39 dB -13.52 dB 4:27 06-Never Be The Same
DR11 -0.39 dB -13.31 dB 3:35 07-Love This Life
DR11 -0.39 dB -13.88 dB 2:52 08-Sister Madly
DR11 -0.39 dB -13.27 dB 3:56 09-In The Lowlands
DR12 -0.39 dB -15.76 dB 3:07 10-Better Be Home Soon
––––––––––––––––––––––––––––––––––––––––

Number of tracks: 10
Official DR value: DR11

Samplerate: 96000 Hz
Channels: 2
Bits per sample: 24
Bitrate: 2827 kbps
Codec: FLAC
================================================================================



Thanks to the Original customer.