Tags
Language
Tags
June 2024
Su Mo Tu We Th Fr Sa
26 27 28 29 30 31 1
2 3 4 5 6 7 8
9 10 11 12 13 14 15
16 17 18 19 20 21 22
23 24 25 26 27 28 29
30 1 2 3 4 5 6

David Bernard & Park Avenue Chamber Symphony - Tchaikovsky Symphonies Nos. 4, 5 & 6 Pathétique (2024) [24/48]

Posted By: pyatak
David Bernard & Park Avenue Chamber Symphony - Tchaikovsky Symphonies Nos. 4, 5 & 6 Pathétique (2024) [24/48]

David Bernard & Park Avenue Chamber Symphony - Tchaikovsky Symphonies Nos. 4, 5 & 6 Pathétique (2024) [24/48]
FLAC (tracks) 24-bit/48 kHz | Front Cover | Time - 02:13:47 minutes | 1.24 GB
Classical | Studio Master, Official Digital Download

A fixture of the orchestral scene in the New York City area, conductor David Bernard has also worked with ensembles in more than 20 countries on four continents. He is noted for his InsideOut orchestral concert concept, which involves seating the audience on-stage with the musicians.

Bernard was born in 1964. He studied both conducting and clarinet, and has been active professionally in both capacities. Bernard has conducted widely around New York, leading the South Shore Symphony, the Putnam Symphony, the New York Symphonic Arts Ensemble, the Litha Symphony, the Manhattan School of Music Orchestra, the Island Symphony Orchestra, and the Greater Newburgh Symphony, and the Brooklyn Symphony as a guest conductor. He serves as music director of the Massapequa Philharmonic and the Park Avenue Chamber Symphony; it is with the latter that he has developed the InsideOut concept.

TRACKLIST

1. David Bernard - Symphony No. 4, Op. 36 TH 27: I. Andante Sostenuto - Moderato Con Anima - Moderato Assai, Quasi Andante - Allegro Vivo
2. David Bernard - Symphony No. 4, Op. 36 TH 27: II. Andantino In Modo Di Canzona
3. David Bernard - Symphony No. 4, Op. 36 TH 27: III. Scherzo
4. David Bernard - Symphony No. 4, Op. 36 TH 27: IV. Finale
5. David Bernard - Symphony No. 5, Op. 64 TH 29: I. Andante - Allegro con anima
6. David Bernard - Symphony No. 5, Op. 64 TH 29: II. Andante cantabile, con alcuna licenza
7. David Bernard - Symphony No. 5, Op. 64 TH 29: III. Allegro moderato
8. David Bernard - Symphony No. 5, Op. 64 TH 29: IV. Finale
9. David Bernard - Symphony No. 6, Op. 74 “Pathétique” TH 30: I. Adagio - Allegro Non Troppo
10. David Bernard - Symphony No. 6, Op. 74 “Pathétique” TH 30: II. Allegro Con Grazia
11. David Bernard - Symphony No. 6, Op. 74 “Pathétique” TH 30: III. Allegro Molto Vivace
12. David Bernard - Symphony No. 6, Op. 74 “Pathétique” TH 30: IV. Finale

foobar2000 1.6.2 / Dynamic Range Meter 1.1.1
log date: 2024-02-15 14:38:10

––––––––––––––––––––––––––––––––––––––––
Analyzed: David Bernard / Tchaikovsky: Symphonies Nos. 4, 5 & 6 "Pathétique"
––––––––––––––––––––––––––––––––––––––––

DR Peak RMS Duration Track
––––––––––––––––––––––––––––––––––––––––
DR14 -0.74 dB -20.72 dB 18:18 01-Symphony No. 4, Op. 36 TH 27: I. Andante Sostenuto - Moderato Con Anima - Moderato Assai, Quasi Andante - Allegro Vivo
DR14 -5.20 dB -26.94 dB 9:10 02-Symphony No. 4, Op. 36 TH 27: II. Andantino In Modo Di Canzona
DR15 -9.75 dB -31.94 dB 6:04 03-Symphony No. 4, Op. 36 TH 27: III. Scherzo
DR13 -2.02 dB -21.01 dB 8:34 04-Symphony No. 4, Op. 36 TH 27: IV. Finale
DR15 -1.98 dB -24.74 dB 15:13 05-Symphony No. 5, Op. 64 TH 29: I. Andante - Allegro con anima
DR16 -2.14 dB -25.88 dB 13:16 06-Symphony No. 5, Op. 64 TH 29: II. Andante cantabile, con alcuna licenza
DR15 -8.50 dB -31.05 dB 6:15 07-Symphony No. 5, Op. 64 TH 29: III. Allegro moderato
DR14 -2.25 dB -21.58 dB 11:46 08-Symphony No. 5, Op. 64 TH 29: IV. Finale
DR15 -2.00 dB -22.93 dB 18:08 09-Symphony No. 6, Op. 74 “Pathétique” TH 30: I. Adagio - Allegro Non Troppo
DR14 -6.16 dB -24.65 dB 7:36 10-Symphony No. 6, Op. 74 “Pathétique” TH 30: II. Allegro Con Grazia
DR13 -1.01 dB -19.29 dB 8:19 11-Symphony No. 6, Op. 74 “Pathétique” TH 30: III. Allegro Molto Vivace
DR15 -1.86 dB -23.46 dB 11:07 12-Symphony No. 6, Op. 74 “Pathétique” TH 30: IV. Finale
––––––––––––––––––––––––––––––––––––––––

Number of tracks: 12
Official DR value: DR15

Samplerate: 48000 Hz
Channels: 2
Bits per sample: 24
Bitrate: 1325 kbps
Codec: FLAC
================================================================================



Thanks to the Original customer.