Tags
Language
Tags
January 2023
Su Mo Tu We Th Fr Sa
1 2 3 4 5 6 7
8 9 10 11 12 13 14
15 16 17 18 19 20 21
22 23 24 25 26 27 28
29 30 31 1 2 3 4

Dead & Company - Hersheypark Stadium, Hershey, PA 8-28-21 (2022) [Official Digital Download 24/96]

Posted By: pyatak
Dead & Company - Hersheypark Stadium, Hershey, PA 8-28-21 (2022) [Official Digital Download 24/96]

Dead & Company - Hersheypark Stadium, Hershey, PA 8-28-21 (2022) [Official Digital Download 24/96]
FLAC (tracks) 24-bit/96 kHz | Front Cover | Time - 03:03:43 minutes | 3,76 GB
Rock | Studio Master, Official Digital Download

Dead & Company is an American jam band consisting of former Grateful Dead members Bob Weir (guitar), Mickey Hart (drums), and Bill Kreutzmann (drums), along with John Mayer (guitar), Oteil Burbridge (bass/drums), and Jeff Chimenti (keyboards). The band continues the strong live tradition of the Grateful Dead, creating unforgettable experiences at their shows, no two performances being alike.

To date, the band has released no studio recordings, but all of their concerts to date have been (or are being) released as albums.

TRACKLIST

1. Dead & Company - The Music Never Stopped (Live at Hersheypark Stadium, Hershey, PA 8/28/21)
2. Dead & Company - Easy Answers (Live at Hersheypark Stadium, Hershey, PA 8/28/21)
3. Dead & Company - Touch of Grey (Live at Hersheypark Stadium, Hershey, PA 8/28/21)
4. Dead & Company - Tennessee Jed (Live at Hersheypark Stadium, Hershey, PA 8/28/21)
5. Dead & Company - Mr. Charlie (Live at Hersheypark Stadium, Hershey, PA 8/28/21)
6. Dead & Company - Black-Throated Wind (Live at Hersheypark Stadium, Hershey, PA 8/28/21)
7. Dead & Company - Cassidy (Live at Hersheypark Stadium, Hershey, PA 8/28/21)
8. Dead & Company - Don't Ease Me In (Live at Hersheypark Stadium, Hershey, PA 8/28/21)
9. Dead & Company - Here Comes Sunshine (Live at Hersheypark Stadium, Hershey, PA 8/28/21)
10. Dead & Company - Estimated Prophet (Live at Hersheypark Stadium, Hershey, PA 8/28/21)
11. Dead & Company - Eyes of the World (Live at Hersheypark Stadium, Hershey, PA 8/28/21)
12. Dead & Company - Althea (Live at Hersheypark Stadium, Hershey, PA 8/28/21)
13. Dead & Company - Drums (Live at Hersheypark Stadium, Hershey, PA 8/28/21)
14. Dead & Company - Space (Live at Hersheypark Stadium, Hershey, PA 8/28/21)
15. Dead & Company - Milestones (Live at Hersheypark Stadium, Hershey, PA 8/28/21)
16. Dead & Company - Goin' Down the Road Feeling Bad (Live at Hersheypark Stadium, Hershey, PA 8/28/21)
17. Dead & Company - Death Don't Have No Mercy (Live at Hersheypark Stadium, Hershey, PA 8/28/21)
18. Dead & Company - One More Saturday Night (Live at Hersheypark Stadium, Hershey, PA 8/28/21)
19. Dead & Company - The Mighty Quinn (Quinn the Eskimo) (Live at Hersheypark Stadium, Hershey, PA 8/28/21)

foobar2000 1.6.2 / Dynamic Range Meter 1.1.1
log date: 2022-09-10 16:45:44

––––––––––––––––––––––––––––––––––––––––
Analyzed: Dead & Company / Hersheypark Stadium, Hershey, PA 8/28/21
––––––––––––––––––––––––––––––––––––––––

DR Peak RMS Duration Track
––––––––––––––––––––––––––––––––––––––––
DR14 -0.10 dB -17.18 dB 9:22 01-The Music Never Stopped (Live at Hersheypark Stadium, Hershey, PA 8/28/21)
DR16 -0.10 dB -17.60 dB 13:42 02-Easy Answers (Live at Hersheypark Stadium, Hershey, PA 8/28/21)
DR14 -0.10 dB -15.85 dB 8:00 03-Touch of Grey (Live at Hersheypark Stadium, Hershey, PA 8/28/21)
DR13 -0.65 dB -16.05 dB 9:03 04-Tennessee Jed (Live at Hersheypark Stadium, Hershey, PA 8/28/21)
DR13 -0.10 dB -15.49 dB 5:13 05-Mr. Charlie (Live at Hersheypark Stadium, Hershey, PA 8/28/21)
DR14 -0.10 dB -16.76 dB 8:21 06-Black-Throated Wind (Live at Hersheypark Stadium, Hershey, PA 8/28/21)
DR14 -0.10 dB -16.27 dB 11:59 07-Cassidy (Live at Hersheypark Stadium, Hershey, PA 8/28/21)
DR13 -0.10 dB -14.29 dB 5:52 08-Don't Ease Me In (Live at Hersheypark Stadium, Hershey, PA 8/28/21)
DR14 -0.10 dB -15.96 dB 11:14 09-Here Comes Sunshine (Live at Hersheypark Stadium, Hershey, PA 8/28/21)
DR13 -0.10 dB -16.19 dB 16:30 10-Estimated Prophet (Live at Hersheypark Stadium, Hershey, PA 8/28/21)
DR13 -0.10 dB -16.22 dB 17:48 11-Eyes of the World (Live at Hersheypark Stadium, Hershey, PA 8/28/21)
DR12 -0.31 dB -15.79 dB 10:10 12-Althea (Live at Hersheypark Stadium, Hershey, PA 8/28/21)
DR14 -0.10 dB -17.64 dB 7:40 13-Drums (Live at Hersheypark Stadium, Hershey, PA 8/28/21)
DR9 -4.23 dB -19.13 dB 10:44 14-Space (Live at Hersheypark Stadium, Hershey, PA 8/28/21)
DR12 -0.10 dB -15.75 dB 7:58 15-Milestones (Live at Hersheypark Stadium, Hershey, PA 8/28/21)
DR13 -0.10 dB -14.75 dB 8:02 16-Goin' Down the Road Feeling Bad (Live at Hersheypark Stadium, Hershey, PA 8/28/21)
DR13 -0.10 dB -16.74 dB 11:10 17-Death Don't Have No Mercy (Live at Hersheypark Stadium, Hershey, PA 8/28/21)
DR12 -0.10 dB -14.10 dB 5:45 18-One More Saturday Night (Live at Hersheypark Stadium, Hershey, PA 8/28/21)
DR14 -0.10 dB -15.92 dB 5:11 19-The Mighty Quinn (Quinn the Eskimo) (Live at Hersheypark Stadium, Hershey, PA 8/28/21)
––––––––––––––––––––––––––––––––––––––––

Number of tracks: 19
Official DR value: DR13

Samplerate: 96000 Hz
Channels: 2
Bits per sample: 24
Bitrate: 2906 kbps
Codec: FLAC
================================================================================



Thanks to the Original customer.