Tags
Language
Tags
November 2022
Su Mo Tu We Th Fr Sa
30 31 1 2 3 4 5
6 7 8 9 10 11 12
13 14 15 16 17 18 19
20 21 22 23 24 25 26
27 28 29 30 1 2 3

Dead & Company - Hollywood Bowl, Los Angeles, CA 10-29-21 (2022) [Official Digital Download 24/96]

Posted By: pyatak
Dead & Company - Hollywood Bowl, Los Angeles, CA 10-29-21 (2022) [Official Digital Download 24/96]

Dead & Company - Hollywood Bowl, Los Angeles, CA 10-29-21 (2022) [Official Digital Download 24/96]
FLAC (tracks) 24-bit/96 kHz | Front Cover | Time - 03:04:28 minutes | 3,68 GB
Rock | Studio Master, Official Digital Download

Dead & Company is an American jam band consisting of former Grateful Dead members Bob Weir (guitar), Mickey Hart (drums), and Bill Kreutzmann (drums), along with John Mayer (guitar), Oteil Burbridge (bass/drums), and Jeff Chimenti (keyboards). The band continues the strong live tradition of the Grateful Dead, creating unforgettable experiences at their shows, no two performances being alike.

To date, the band has released no studio recordings, but all of their concerts to date have been (or are being) released as albums.

TRACKLIST

1. Dead & Company - Playing in the Band (Live at the Hollywood Bowl, Los Angeles, CA 10/29/21)
2. Dead & Company - Deal (Live at the Hollywood Bowl, Los Angeles, CA 10/29/21)
3. Dead & Company - All Along the Watchtower (Live at the Hollywood Bowl, Los Angeles, CA 10/29/21)
4. Dead & Company - Mr. Charlie (Live at the Hollywood Bowl, Los Angeles, CA 10/29/21)
5. Dead & Company - Ramble on Rose (Live at the Hollywood Bowl, Los Angeles, CA 10/29/21)
6. Dead & Company - They Love Each Other (Live at the Hollywood Bowl, Los Angeles, CA 10/29/21)
7. Dead & Company - High Time (Live at the Hollywood Bowl, Los Angeles, CA 10/29/21)
8. Dead & Company - Playing in the Band (Reprise) (Live at the Hollywood Bowl, Los Angeles, CA 10/29/21)
9. Dead & Company - Sugar Magnolia (Live at the Hollywood Bowl, Los Angeles, CA 10/29/21)
10. Dead & Company - Help on the Way (Live at the Hollywood Bowl, Los Angeles, CA 10/29/21)
11. Dead & Company - Slipknot! (Live at the Hollywood Bowl, Los Angeles, CA 10/29/21)
12. Dead & Company - Franklin's Tower (Live at the Hollywood Bowl, Los Angeles, CA 10/29/21)
13. Dead & Company - Estimated Prophet (Live at the Hollywood Bowl, Los Angeles, CA 10/29/21)
14. Dead & Company - Drums (Live at the Hollywood Bowl, Los Angeles, CA 10/29/21)
15. Dead & Company - Space (Live at the Hollywood Bowl, Los Angeles, CA 10/29/21)
16. Dead & Company - The Other One (Live at the Hollywood Bowl, Los Angeles, CA 10/29/21)
17. Dead & Company - Standing on the Moon (Live at the Hollywood Bowl, Los Angeles, CA 10/29/21)
18. Dead & Company - Sunshine Daydream (Live at the Hollywood Bowl, Los Angeles, CA 10/29/21)
19. Dead & Company - Ripple (Live at the Hollywood Bowl, Los Angeles, CA 10/29/21)

foobar2000 1.6.2 / Dynamic Range Meter 1.1.1
log date: 2022-09-19 19:18:20

––––––––––––––––––––––––––––––––––––––––
Analyzed: Dead & Company / Hollywood Bowl, Los Angeles, CA 10/29/21
––––––––––––––––––––––––––––––––––––––––

DR Peak RMS Duration Track
––––––––––––––––––––––––––––––––––––––––
DR13 -0.10 dB -15.19 dB 16:04 01-Playing in the Band (Live at the Hollywood Bowl, Los Angeles, CA 10/29/21)
DR10 -0.10 dB -12.12 dB 8:59 02-Deal (Live at the Hollywood Bowl, Los Angeles, CA 10/29/21)
DR12 -0.10 dB -13.76 dB 9:31 03-All Along the Watchtower (Live at the Hollywood Bowl, Los Angeles, CA 10/29/21)
DR11 -0.10 dB -12.23 dB 4:41 04-Mr. Charlie (Live at the Hollywood Bowl, Los Angeles, CA 10/29/21)
DR11 -0.10 dB -14.42 dB 9:40 05-Ramble on Rose (Live at the Hollywood Bowl, Los Angeles, CA 10/29/21)
DR11 -0.10 dB -13.88 dB 10:22 06-They Love Each Other (Live at the Hollywood Bowl, Los Angeles, CA 10/29/21)
DR13 -0.10 dB -15.70 dB 7:47 07-High Time (Live at the Hollywood Bowl, Los Angeles, CA 10/29/21)
DR12 -0.10 dB -14.65 dB 9:31 08-Playing in the Band (Reprise) (Live at the Hollywood Bowl, Los Angeles, CA 10/29/21)
DR12 -0.10 dB -13.66 dB 8:12 09-Sugar Magnolia (Live at the Hollywood Bowl, Los Angeles, CA 10/29/21)
DR12 -0.10 dB -12.85 dB 5:21 10-Help on the Way (Live at the Hollywood Bowl, Los Angeles, CA 10/29/21)
DR12 -0.10 dB -12.99 dB 7:43 11-Slipknot! (Live at the Hollywood Bowl, Los Angeles, CA 10/29/21)
DR10 -0.10 dB -12.69 dB 12:09 12-Franklin's Tower (Live at the Hollywood Bowl, Los Angeles, CA 10/29/21)
DR12 -0.10 dB -14.16 dB 17:18 13-Estimated Prophet (Live at the Hollywood Bowl, Los Angeles, CA 10/29/21)
DR14 -0.10 dB -17.49 dB 7:59 14-Drums (Live at the Hollywood Bowl, Los Angeles, CA 10/29/21)
DR12 -0.32 dB -18.37 dB 11:18 15-Space (Live at the Hollywood Bowl, Los Angeles, CA 10/29/21)
DR12 -0.10 dB -13.56 dB 11:32 16-The Other One (Live at the Hollywood Bowl, Los Angeles, CA 10/29/21)
DR12 -0.10 dB -15.16 dB 10:21 17-Standing on the Moon (Live at the Hollywood Bowl, Los Angeles, CA 10/29/21)
DR11 -0.10 dB -12.95 dB 6:06 18-Sunshine Daydream (Live at the Hollywood Bowl, Los Angeles, CA 10/29/21)
DR14 -0.10 dB -17.38 dB 5:41 19-Ripple (Live at the Hollywood Bowl, Los Angeles, CA 10/29/21)
––––––––––––––––––––––––––––––––––––––––

Number of tracks: 19
Official DR value: DR12

Samplerate: 96000 Hz
Channels: 2
Bits per sample: 24
Bitrate: 2911 kbps
Codec: FLAC
================================================================================



Thanks to the Original customer.