Tags
Language
Tags

Delbert McClinton - Outdated Emotion (2022) [Official Digital Download]

Posted By: pyatak
Delbert McClinton - Outdated Emotion (2022) [Official Digital Download]

Delbert McClinton - Outdated Emotion (2022) [Official Digital Download]
FLAC (tracks) 24-bit/44.1 kHz | Front Cover | Time - 41:43 minutes | 458 MB
Blues Rock | Studio Master, Official Digital Download

This is Delbert's 27th studio album, and a bit of a return to his roots. While Delbert wrote just a handful of songs on the album, he puts his unmistakable footprint and charm on classics and deep cuts from some of his favorite songwriters such as Hank Williams and Jimmy Reed, pulling from across traditional blues, honky tonk, R&B, and more. The album was co-produced by Delbert and Kevin McKendree.

TRACKLIST

1. Delbert McClinton - Stagger Lee
2. Delbert McClinton - Settin' the Woods on Fire
3. Delbert McClinton - The Sun is Shining
4. Delbert McClinton - One Scotch, One Bourbon, One Beer
5. Delbert McClinton - Long Tall Sally
6. Delbert McClinton - Two Step Too
7. Delbert McClinton - I Want a Little Girl
8. Delbert McClinton - Ain't That Lovin' You
9. Delbert McClinton - Jambalaya
10. Delbert McClinton - Connecticut Blues
11. Delbert McClinton - I Ain't Got You
12. Delbert McClinton - Move It on Over
13. Delbert McClinton - Hard Hearted Hannah
14. Delbert McClinton - Sweet Talkin' Man
15. Delbert McClinton - Money Honey
16. Delbert McClinton - Call Me a Cab

foobar2000 1.6.2 / Dynamic Range Meter 1.1.1
log date: 2022-05-12 20:51:33

––––––––––––––––––––––––––––––––––––––––
Analyzed: Delbert McClinton / Outdated Emotion
––––––––––––––––––––––––––––––––––––––––

DR Peak RMS Duration Track
––––––––––––––––––––––––––––––––––––––––
DR8 -0.48 dB -9.34 dB 2:35 01-Stagger Lee
DR8 -0.48 dB -9.12 dB 2:41 02-Settin' the Woods on Fire
DR7 -0.48 dB -9.52 dB 2:36 03-The Sun is Shining
DR8 -0.48 dB -10.46 dB 3:12 04-One Scotch, One Bourbon, One Beer
DR9 -0.48 dB -10.24 dB 2:31 05-Long Tall Sally
DR9 -0.48 dB -10.75 dB 3:06 06-Two Step Too
DR9 -0.48 dB -12.52 dB 3:02 07-I Want a Little Girl
DR9 -0.48 dB -10.20 dB 2:19 08-Ain't That Lovin' You
DR8 -0.48 dB -10.06 dB 2:51 09-Jambalaya
DR9 -0.48 dB -11.50 dB 2:26 10-Connecticut Blues
DR8 -0.48 dB -9.79 dB 2:31 11-I Ain't Got You
DR8 -0.48 dB -9.64 dB 2:43 12-Move It on Over
DR9 -0.48 dB -10.70 dB 3:01 13-Hard Hearted Hannah
DR8 -0.48 dB -10.29 dB 2:40 14-Sweet Talkin' Man
DR8 -0.48 dB -9.83 dB 2:58 15-Money Honey
DR11 -0.48 dB -14.85 dB 0:37 16-Call Me a Cab
––––––––––––––––––––––––––––––––––––––––

Number of tracks: 16
Official DR value: DR8

Samplerate: 44100 Hz
Channels: 2
Bits per sample: 24
Bitrate: 1082 kbps
Codec: FLAC
================================================================================



Thanks to the Original customer.