Tags
Language
Tags

Delta Goodrem - Only Santa Knows (Deluxe Edition) (2021) [Official Digital Download]

Posted By: pyatak
Delta Goodrem - Only Santa Knows (Deluxe Edition) (2021) [Official Digital Download]

Delta Goodrem - Only Santa Knows (Deluxe Edition) (2021) [Official Digital Download]
FLAC (tracks) 24-bit/48 kHz | Front Cover | Time - 53:31 minutes | 681 MB
Pop, X-Mass | Label: Sony Music Entertainment, Official Digital Download

Only Santa Knows is the sixth studio album and the first full-length Christmas album by Australian singer-songwriter Delta Goodrem. It was released on 13 November 2020 through Sony Music Australia. It is Goodrem's second Christmas release, after 2012's Christmas EP. The album includes two original tracks and 11 covers, including "Silent Night" with Gurrumul, which was recorded in 2014 and included on The Spirit of Christmas 2014.

The album was reissued on 19 November 2021 in a deluxe edition format containing four new additional tracks.

TRACKLIST

01. Delta Goodrem - Carol of the Bells
02. Delta Goodrem - Only Santa Knows
03. Delta Goodrem - The Little Drummer Boy
04. Delta Goodrem - Have Yourself a Merry Little Christmas
05. Delta Goodrem - Rudolph the Red-Nosed Reindeer
06. Delta Goodrem - River
07. Delta Goodrem - Rockin' Around the Christmas Tree
08. Delta Goodrem - White Christmas
09. Delta Goodrem - Santa Claus Is Coming to Town
10. Delta Goodrem - Deck the Halls
11. Delta Goodrem - Grown-Up Christmas List
12. Delta Goodrem - Silent Night
13. Delta Goodrem - Merry Christmas to You
14. Delta Goodrem - Christmas (Baby Please Come Home)
15. Delta Goodrem - Sleigh Ride
16. Delta Goodrem - Jingle Bell Rock
17. Delta Goodrem - Frosty the Snowman

foobar2000 1.6.2 / Dynamic Range Meter 1.1.1
log date: 2021-11-24 15:52:49

––––––––––––––––––––––––––––––––––––––––
Analyzed: Delta Goodrem / Only Santa Knows (Deluxe Edition)
––––––––––––––––––––––––––––––––––––––––

DR Peak RMS Duration Track
––––––––––––––––––––––––––––––––––––––––
DR7 0.00 dB -8.78 dB 0:39 01-Carol of the Bells
DR5 0.00 dB -6.16 dB 3:05 02-Only Santa Knows
DR5 0.00 dB -6.33 dB 3:34 03-The Little Drummer Boy
DR6 0.00 dB -7.60 dB 2:59 04-Have Yourself a Merry Little Christmas
DR5 0.00 dB -7.11 dB 3:38 05-Rudolph the Red-Nosed Reindeer
DR6 0.00 dB -8.23 dB 4:01 06-River
DR5 0.00 dB -6.01 dB 2:47 07-Rockin' Around the Christmas Tree
DR5 0.00 dB -6.79 dB 3:29 08-White Christmas
DR4 0.00 dB -5.76 dB 4:14 09-Santa Claus Is Coming to Town
DR5 0.00 dB -7.83 dB 2:46 10-Deck the Halls
DR5 0.00 dB -7.75 dB 3:57 11-Grown-Up Christmas List
DR5 0.00 dB -7.31 dB 4:05 12-Silent Night
DR5 0.00 dB -7.95 dB 2:48 13-Merry Christmas to You
DR5 0.00 dB -5.81 dB 3:22 14-Christmas (Baby Please Come Home)
DR5 0.00 dB -6.46 dB 3:13 15-Sleigh Ride
DR5 0.00 dB -5.71 dB 2:22 16-Jingle Bell Rock
DR5 0.00 dB -5.64 dB 2:31 17-Frosty the Snowman
––––––––––––––––––––––––––––––––––––––––

Number of tracks: 17
Official DR value: DR5

Samplerate: 48000 Hz
Channels: 2
Bits per sample: 24
Bitrate: 1837 kbps
Codec: FLAC
================================================================================



Thanks to the Original customer.