Tags
Language
Tags
January 2023
Su Mo Tu We Th Fr Sa
1 2 3 4 5 6 7
8 9 10 11 12 13 14
15 16 17 18 19 20 21
22 23 24 25 26 27 28
29 30 31 1 2 3 4

Doric String Quartet - Mozart - String Quartets, Vol. 1 – The Prussian Quartets (2021) [Official Digital Download 24/96]

Posted By: pyatak
Doric String Quartet - Mozart - String Quartets, Vol. 1 – The Prussian Quartets (2021) [Official Digital Download 24/96]

Doric String Quartet - Mozart - String Quartets, Vol. 1 – The Prussian Quartets (2021) [Official Digital Download 24/96]
FLAC (tracks) 24-bit/96 kHz | Front Cover | Time - 89:59 minutes | 1,56 GB
Classical | Label: Chandos, Official Digital Download

Towards the end of his life, short of money and heavil y in debt, Mozart had the opportunity to visit King Friedrich Wilhelm II of Prussia – a famous patron of the arts and a keen and above-average musician. Mozart performed for the King and left with some cash and a commission for a set of six string quartets, of which these are the only three he completed. They are ground-breaking in the way in which Mozart utilised the voicing of the instruments. King Friedrich was a viola da gamba player turned cellist, and these works feature extensive melodies for the cello, usually in a high register, thus emancipating the cello from the bass line and introducing a more evenly blended texture. Firmly established as one of the leading quartets of their generation, the Doric String Quartet enjoys a worldwide reputation and has performed at festivals and concert halls around the globe. Exclusive Chandos artists, the Quartet has drawn widespread critical acclaim for its recordings and won a number of prestigious awards.

TRACKLIST

01. Doric String Quartet - Mozart: String Quartet No. 21 in D Major, K. 575 "Prussian No. 1": I. Allegretto
02. Doric String Quartet - Mozart: String Quartet No. 21 in D Major, K. 575 "Prussian No. 1": II. Andante
03. Doric String Quartet - Mozart: String Quartet No. 21 in D Major, K. 575 "Prussian No. 1": III. Menuetto. Allegretto
04. Doric String Quartet - Mozart: String Quartet No. 21 in D Major, K. 575 "Prussian No. 1": IV. Allegretto
05. Doric String Quartet - Mozart: String Quartet No. 22 in B-Flat Major, K. 589 "Prussian No. 2": I. Allegro
06. Doric String Quartet - Mozart: String Quartet No. 22 in B-Flat Major, K. 589 "Prussian No. 2": II. Larghetto
07. Doric String Quartet - Mozart: String Quartet No. 22 in B-Flat Major, K. 589 "Prussian No. 2": III. Menuetto. Moderato
08. Doric String Quartet - Mozart: String Quartet No. 22 in B-Flat Major, K. 589 "Prussian No. 2": IV. Allegro assai
09. Doric String Quartet - Mozart: String Quartet No. 23 in F Major, K. 590 "Prussian No. 3": I. Allegro moderato
10. Doric String Quartet - Mozart: String Quartet No. 23 in F Major, K. 590 "Prussian No. 3": II. Andante
11. Doric String Quartet - Mozart: String Quartet No. 23 in F Major, K. 590 "Prussian No. 3": III. Menuetto. Allegretto
12. Doric String Quartet - Mozart: String Quartet No. 23 in F Major, K. 590 "Prussian No. 3": IV. Allegro

foobar2000 1.6.2 / Dynamic Range Meter 1.1.1
log date: 2021-06-30 21:49:35

––––––––––––––––––––––––––––––––––––––––
Analyzed: Doric String Quartet / Mozart: String Quartets, Vol. 1 – The Prussian Quartets
––––––––––––––––––––––––––––––––––––––––

DR Peak RMS Duration Track
––––––––––––––––––––––––––––––––––––––––
DR17 -0.91 dB -25.03 dB 8:12 01-Mozart: String Quartet No. 21 in D Major, K. 575 "Prussian No. 1": I. Allegretto
DR14 -8.90 dB -29.46 dB 4:29 02-Mozart: String Quartet No. 21 in D Major, K. 575 "Prussian No. 1": II. Andante
DR15 -4.19 dB -25.63 dB 5:25 03-Mozart: String Quartet No. 21 in D Major, K. 575 "Prussian No. 1": III. Menuetto. Allegretto
DR15 -3.13 dB -25.24 dB 6:32 04-Mozart: String Quartet No. 21 in D Major, K. 575 "Prussian No. 1": IV. Allegretto
DR15 -3.29 dB -24.59 dB 10:06 05-Mozart: String Quartet No. 22 in B-Flat Major, K. 589 "Prussian No. 2": I. Allegro
DR16 -6.03 dB -28.47 dB 7:10 06-Mozart: String Quartet No. 22 in B-Flat Major, K. 589 "Prussian No. 2": II. Larghetto
DR15 -1.05 dB -23.69 dB 6:41 07-Mozart: String Quartet No. 22 in B-Flat Major, K. 589 "Prussian No. 2": III. Menuetto. Moderato
DR15 -0.70 dB -22.98 dB 3:57 08-Mozart: String Quartet No. 22 in B-Flat Major, K. 589 "Prussian No. 2": IV. Allegro assai
DR16 -0.72 dB -22.17 dB 13:12 09-Mozart: String Quartet No. 23 in F Major, K. 590 "Prussian No. 3": I. Allegro moderato
DR17 -3.96 dB -26.58 dB 10:32 10-Mozart: String Quartet No. 23 in F Major, K. 590 "Prussian No. 3": II. Andante
DR12 -2.12 dB -19.99 dB 4:02 11-Mozart: String Quartet No. 23 in F Major, K. 590 "Prussian No. 3": III. Menuetto. Allegretto
DR14 -1.39 dB -20.99 dB 9:44 12-Mozart: String Quartet No. 23 in F Major, K. 590 "Prussian No. 3": IV. Allegro
––––––––––––––––––––––––––––––––––––––––

Number of tracks: 12
Official DR value: DR15

Samplerate: 96000 Hz
Channels: 2
Bits per sample: 24
Bitrate: 2605 kbps
Codec: FLAC
================================================================================



Thanks to the Original customer.