Tags
Language
Tags

Eleonor Bindman - J.S. Bach - Partitas, BWV 825-830 (2022) [Official Digital Download 24/96]

Posted By: pyatak
Eleonor Bindman - J.S. Bach - Partitas, BWV 825-830 (2022) [Official Digital Download 24/96]

Eleonor Bindman - J.S. Bach - Partitas, BWV 825-830 (2022) [Official Digital Download 24/96]
FLAC (tracks) 24-bit/96 kHz | Front Cover | Time - 02:39:03 minutes | 2,43 GB
Classical | Studio Master, Official Digital Download

The profound and delightful Partitas, J. S. Bach’s Opus 1, sparkle in Eleonor Bindman’s brilliant performance. Her unhurried tempos bring out the twists, turns and quick modulations of the dance movements and preludes of this unparalleled set of six suites — famous in Bach’s day and today for their vitality and depth. Bindman’s spirited recording enriches the listener’s experience by revealing the power and emotional nuances of the suites.

The scope of the Partitas is vast — melody, harmony and counterpoint blending in sonorous combinations that surprise, fascinate and enchant. In the words of Bach’s first biographer, J. N. Forkel: “Such excellent compositions for the clavier [keyboard] had never been seen and heard before. Anyone who had learnt to perform well some pieces out of them could make his fortune in the world thereby.” Choosing to publish this set as his Opus 1, Bach clearly held these compositions in high esteem.

TRACKLIST

CD 01

1. Eleonor Bindman - I. Prelude
2. Eleonor Bindman - II. Allemande
3. Eleonor Bindman - III. Courante
4. Eleonor Bindman - IV. Sarabande
5. Eleonor Bindman - V. Menuets I & II
6. Eleonor Bindman - VI. Gigue
7. Eleonor Bindman - I. Sinfonia
8. Eleonor Bindman - II. Allemande
9. Eleonor Bindman - III. Courante
10. Eleonor Bindman - IV. Sarabande
11. Eleonor Bindman - V. Rondeau
12. Eleonor Bindman - VI. Capriccio
13. Eleonor Bindman - I. Toccata
14. Eleonor Bindman - II. Allemande
15. Eleonor Bindman - III. Courante
16. Eleonor Bindman - IV. Air
17. Eleonor Bindman - V. Sarabande
18. Eleonor Bindman - VI. Tempo di gavotta
19. Eleonor Bindman - VII. Gigue

CD 02

1. Eleonor Bindman - I. Fantasia
2. Eleonor Bindman - II. Allemande
3. Eleonor Bindman - III. Courante
4. Eleonor Bindman - IV. Sarabande
5. Eleonor Bindman - V. Burlesca
6. Eleonor Bindman - VI. Scherzo
7. Eleonor Bindman - VII. Gigue
8. Eleonor Bindman - I. Ouverture
9. Eleonor Bindman - II. Allemande
10. Eleonor Bindman - III. Courante
11. Eleonor Bindman - IV. Aria
12. Eleonor Bindman - V. Sarabande
13. Eleonor Bindman - VI. Menuet
14. Eleonor Bindman - VII. Gigue
15. Eleonor Bindman - I. Preambulum
16. Eleonor Bindman - II. Allemande
17. Eleonor Bindman - III. Courante
18. Eleonor Bindman - IV. Sarabande
19. Eleonor Bindman - V. Tempo di minuetto
20. Eleonor Bindman - VI. Passepied
21. Eleonor Bindman - VII. Gigue

foobar2000 1.6.2 / Dynamic Range Meter 1.1.1
log date: 2022-05-05 18:10:59

––––––––––––––––––––––––––––––––––––––––
Analyzed: Eleonor Bindman / J.S. Bach: Partitas, BWV 825-830
––––––––––––––––––––––––––––––––––––––––

DR Peak RMS Duration Track
––––––––––––––––––––––––––––––––––––––––
DR12 -2.17 dB -18.27 dB 2:28 01-I. Prelude
DR11 -1.80 dB -15.72 dB 3:21 02-II. Allemande
DR12 -1.73 dB -16.16 dB 2:56 03-III. Courante
DR13 -2.23 dB -19.43 dB 5:58 04-IV. Sarabande
DR13 -2.49 dB -18.09 dB 3:33 05-V. Menuets I & II
DR12 -1.31 dB -16.54 dB 2:10 06-VI. Gigue
DR12 -0.76 dB -16.03 dB 5:01 07-I. Sinfonia
DR12 -3.30 dB -18.60 dB 5:50 08-II. Allemande
DR11 -0.67 dB -14.78 dB 2:31 09-III. Courante
DR12 -8.66 dB -23.92 dB 3:45 10-IV. Sarabande
DR11 -2.16 dB -16.07 dB 1:36 11-V. Rondeau
DR11 -0.60 dB -13.45 dB 3:42 12-VI. Capriccio
DR13 -0.87 dB -18.31 dB 10:23 13-I. Toccata
DR12 -2.23 dB -18.46 dB 3:57 14-II. Allemande
DR12 -1.81 dB -17.38 dB 4:56 15-III. Courante
DR12 -3.41 dB -17.90 dB 1:56 16-IV. Air
DR13 -2.06 dB -19.51 dB 6:05 17-V. Sarabande
DR11 -0.86 dB -14.90 dB 2:10 18-VI. Tempo di gavotta
DR12 -0.79 dB -15.92 dB 7:00 19-VII. Gigue
––––––––––––––––––––––––––––––––––––––––

Number of tracks: 19
Official DR value: DR12

Samplerate: 96000 Hz
Channels: 2
Bits per sample: 24
Bitrate: 2220 kbps
Codec: FLAC
================================================================================

foobar2000 1.6.2 / Dynamic Range Meter 1.1.1
log date: 2022-05-05 18:11:29

––––––––––––––––––––––––––––––––––––––––
Analyzed: Eleonor Bindman / J.S. Bach: Partitas, BWV 825-830
––––––––––––––––––––––––––––––––––––––––

DR Peak RMS Duration Track
––––––––––––––––––––––––––––––––––––––––
DR12 -3.05 dB -17.46 dB 2:32 01-I. Fantasia
DR12 -1.48 dB -17.14 dB 3:11 02-II. Allemande
DR12 -1.03 dB -16.16 dB 3:18 03-III. Courante
DR14 -1.92 dB -20.67 dB 5:39 04-IV. Sarabande
DR12 -0.81 dB -15.69 dB 2:23 05-V. Burlesca
DR12 -1.27 dB -16.00 dB 1:41 06-VI. Scherzo
DR11 -0.56 dB -14.56 dB 3:22 07-VII. Gigue
DR12 -0.75 dB -14.85 dB 6:21 08-I. Ouverture
DR14 -2.31 dB -19.05 dB 9:56 09-II. Allemande
DR12 -0.95 dB -15.00 dB 3:53 10-III. Courante
DR12 -1.29 dB -17.41 dB 2:52 11-IV. Aria
DR12 -4.22 dB -20.90 dB 5:20 12-V. Sarabande
DR11 -1.68 dB -16.07 dB 1:39 13-VI. Menuet
DR11 -0.59 dB -13.76 dB 3:44 14-VII. Gigue
DR12 -0.93 dB -15.18 dB 2:27 15-I. Preambulum
DR12 -2.96 dB -18.83 dB 5:40 16-II. Allemande
DR13 -2.05 dB -18.23 dB 2:34 17-III. Courante
DR14 -1.06 dB -19.32 dB 4:26 18-IV. Sarabande
DR14 -2.02 dB -22.15 dB 2:43 19-V. Tempo di minuetto
DR12 -1.58 dB -15.41 dB 1:57 20-VI. Passepied
DR11 -0.76 dB -13.94 dB 4:07 21-VII. Gigue
––––––––––––––––––––––––––––––––––––––––

Number of tracks: 21
Official DR value: DR12

Samplerate: 96000 Hz
Channels: 2
Bits per sample: 24
Bitrate: 2277 kbps
Codec: FLAC
================================================================================



Thanks to the Original customer.