Tags
Language
Tags

Elisabeth Leonskaja - Schubert- Piano Sonatas, D. 279 & 459 (2022) [Official Digital Download 24/96]

Posted By: pyatak
Elisabeth Leonskaja - Schubert- Piano Sonatas, D. 279 & 459 (2022) [Official Digital Download 24/96]

Elisabeth Leonskaja - Schubert- Piano Sonatas, D. 279 & 459 (2022) [Official Digital Download 24/96]
FLAC (tracks) 24-bit/96 kHz | Front Cover | Time - 55:57 minutes | 969 MB
Classical | Studio Master, Official Digital Download

This pair of Schubert piano sonatas, recently recorded by Elisabeth Leonskaja, were both left unfinished by the young composer. The first comes with a final movement revised by Martino Tirimo, the latter in its usual completion with the pieces from D. 459a.

TRACKLIST

1. Elisabeth Leonskaja - Piano Sonata No. 2 in C Major, D. 279: I. Allegro moderato
2. Elisabeth Leonskaja - Piano Sonata No. 2 in C Major, D. 279: II. Andante
3. Elisabeth Leonskaja - Piano Sonata No. 2 in C Major, D. 279: III. Menuetto. Allegro vivace - Trio
4. Elisabeth Leonskaja - Piano Sonata No. 2 in C Major, D. 279: IV. Allegretto, D. 346 (Compl. Tirimo)
5. Elisabeth Leonskaja - Piano Sonata No. 3 in E Major, D. 459: I. Allegro moderato
6. Elisabeth Leonskaja - Piano Sonata No. 3 in E Major, D. 459: II. Scherzo. Allegro
7. Elisabeth Leonskaja - Piano Sonata No. 3 in E Major, D. 459: III. Adagio
8. Elisabeth Leonskaja - Piano Sonata No. 3 in E Major, D. 459: IV. Scherzo. Allegro - Trio. Più tardo
9. Elisabeth Leonskaja - Piano Sonata No. 3 in E Major, D. 459: V. Allegro patetico

foobar2000 1.6.2 / Dynamic Range Meter 1.1.1
log date: 2022-05-20 19:22:52

––––––––––––––––––––––––––––––––––––––––
Analyzed: Elisabeth Leonskaja / Schubert: Piano Sonatas, D. 279 & 459
––––––––––––––––––––––––––––––––––––––––

DR Peak RMS Duration Track
––––––––––––––––––––––––––––––––––––––––
DR15 -0.65 dB -20.12 dB 8:05 01-Piano Sonata No. 2 in C Major, D. 279: I. Allegro moderato
DR14 -6.42 dB -25.43 dB 5:50 02-Piano Sonata No. 2 in C Major, D. 279: II. Andante
DR13 -2.49 dB -20.17 dB 3:44 03-Piano Sonata No. 2 in C Major, D. 279: III. Menuetto. Allegro vivace - Trio
DR14 -1.40 dB -22.33 dB 8:10 04-Piano Sonata No. 2 in C Major, D. 279: IV. Allegretto, D. 346 (Compl. Tirimo)
DR15 -3.02 dB -23.08 dB 6:31 05-Piano Sonata No. 3 in E Major, D. 459: I. Allegro moderato
DR14 -1.03 dB -21.43 dB 5:21 06-Piano Sonata No. 3 in E Major, D. 459: II. Scherzo. Allegro
DR17 -4.42 dB -27.67 dB 6:40 07-Piano Sonata No. 3 in E Major, D. 459: III. Adagio
DR14 -2.24 dB -22.47 dB 3:57 08-Piano Sonata No. 3 in E Major, D. 459: IV. Scherzo. Allegro - Trio. Più tardo
DR14 -1.60 dB -21.99 dB 7:43 09-Piano Sonata No. 3 in E Major, D. 459: V. Allegro patetico
––––––––––––––––––––––––––––––––––––––––

Number of tracks: 9
Official DR value: DR14

Samplerate: 96000 Hz
Channels: 2
Bits per sample: 24
Bitrate: 2338 kbps
Codec: FLAC
================================================================================



Thanks to the Original customer.