Tags
Language
Tags

Ella Fitzgerald - 100 Essentials of Ella Fitzgerald (Mono Version) (2014) [Official Digital Download 24/96]

Posted By: pyatak
Ella Fitzgerald - 100 Essentials of Ella Fitzgerald (Mono Version) (2014) [Official Digital Download 24/96]

Ella Fitzgerald - 100 Essentials of Ella Fitzgerald (Mono Version) (2014) [Official Digital Download 24/96]
FLAC (tracks) 24-bit/96 kHz | Front Cover | Time - 05:54:21 minutes | 3,3 GB
Vocal Jazz | Label: BnF Collection, Official Digital Download

Ella Jane Fitzgerald (April 25, 1917 – June 15, 1996) was an American jazz singer, sometimes referred to as the First Lady of Song, Queen of Jazz, and Lady Ella. She was noted for her purity of tone, impeccable diction, phrasing, timing, intonation, and a "horn-like" improvisational ability, particularly in her scat singing.

After a tumultuous adolescence, Fitzgerald found stability in musical success with the Chick Webb Orchestra, performing across the country but most often associated with the Savoy Ballroom in Harlem. Her rendition of the nursery rhyme "A-Tisket, A-Tasket" helped boost both her and Webb to national fame. After taking over the band when Webb died, Fitzgerald left it behind in 1942 to start her solo career.

Her manager was Moe Gale, co-founder of the Savoy, until she turned the rest of her career over to Norman Granz, who founded Verve Records to produce new records by Fitzgerald. With Verve she recorded some of her more widely noted works, particularly her interpretations of the Great American Songbook.

While Fitzgerald appeared in movies and as a guest on popular television shows in the second half of the twentieth century, her musical collaborations with Louis Armstrong, Duke Ellington, and The Ink Spots were some of her most notable acts outside of her solo career. These partnerships produced some of her best-known songs such as "Dream a Little Dream of Me", "Cheek to Cheek", "Into Each Life Some Rain Must Fall", and "It Don't Mean a Thing (If It Ain't Got That Swing)".

In 1993, after a career of nearly 60 years, she gave her last public performance. Three years later, she died at the age of 79 after years of declining health. Her accolades included fourteen Grammy Awards, the National Medal of Arts, and the Presidential Medal of Freedom.

TRACKLIST

1. Ella Fitzgerald - Lullaby of Birdland
2. Ella Fitzgerald - Dream a Little Dream of Me
3. Ella Fitzgerald - Summertime
4. Ella Fitzgerald - Everyttime We Say Goodbye
5. Ella Fitzgerald - Makin' Whoopee
6. Ella Fitzgerald - A Foggy Day
7. Ella Fitzgerald - A New Shade of Blues
8. Ella Fitzgerald - All of Me
9. Ella Fitzgerald - But Not for Me
10. Ella Fitzgerald - April in Paris
11. Ella Fitzgerald - Beginner's Luck
12. Ella Fitzgerald - Blue Lou
13. Ella Fitzgerald - A-Tisket A-Tasket
14. Ella Fitzgerald - Clap Hands! Here Comes Charley
15. Ella Fitzgerald - Close Your Eyes
16. Ella Fitzgerald - Hard Hearted Hannah
17. Ella Fitzgerald - Crying Mood
18. Ella Fitzgerald - Day Dream
19. Ella Fitzgerald - A Fine Romance
20. Ella Fitzgerald - Do Nothing Till You Hear from Me
21. Ella Fitzgerald - Bess, You Is My Woman Now
22. Ella Fitzgerald - Autumn in New-York
23. Ella Fitzgerald - Bidin' My Time
24. Ella Fitzgerald - Don't Be That Way
25. Ella Fitzgerald - Caravan
26. Ella Fitzgerald - Begin the Beguine
27. Ella Fitzgerald - Drop Me off in Harlem
28. Ella Fitzgerald - Early Autumn
29. Ella Fitzgerald - Boy Wanted
30. Ella Fitzgerald - Easy to Love
31. Ella Fitzgerald - Basin Street Blues
32. Ella Fitzgerald - Chew Chew Chew
33. Ella Fitzgerald - Ace in the Hole
34. Ella Fitzgerald - Boy What Love Has Done to Me
35. Ella Fitzgerald - Flying Home
36. Ella Fitzgerald - Comes Love
37. Ella Fitzgerald - Funny Face
38. Ella Fitzgerald - Goody Goody
39. Ella Fitzgerald - Air Mail Special
40. Ella Fitzgerald - Cotton Tail
41. Ella Fitzgerald - Holiday in Harlem
42. Ella Fitzgerald - How Long Has This Been Going on?
43. Ella Fitzgerald - Don't Fence Me In
44. Ella Fitzgerald - Between the Devil and the Deep Blue Sea
45. Ella Fitzgerald - I Got Plenty o' Nuttin'
46. Ella Fitzgerald - Clementine
47. Ella Fitzgerald - I 'Ll Walk Alone
48. Ella Fitzgerald - Clap Yo' Hands
49. Ella Fitzgerald - Do I Love You
50. Ella Fitzgerald - I Let a Song Go out of My Heart
51. Ella Fitzgerald - I'll Always Be in Love with You
52. Ella Fitzgerald - Brodway
53. Ella Fitzgerald - How High the Moon
54. Ella Fitzgerald - In a Sentimental Mood
55. Ella Fitzgerald - In the Evening
56. Ella Fitzgerald - Just One of Those Things
57. Ella Fitzgerald - Miss Otis Regrets
58. Ella Fitzgerald - Stompin' at the Savoy
59. Ella Fitzgerald - Lady Be Good
60. Ella Fitzgerald - Take the a Train
61. Ella Fitzgerald - Love Is Here to Stay
62. Ella Fitzgerald - You Can Depend on Me
63. Ella Fitzgerald - In the Still of the Night
64. Ella Fitzgerald - Don'cha Go'way Mad
65. Ella Fitzgerald - Isn't It a Pity
66. Ella Fitzgerald - Dummy Song
67. Ella Fitzgerald - I've Got a Crush on You
68. Ella Fitzgerald - These Foolish Things
69. Ella Fitzgerald - Ella Hums the Blues
70. Ella Fitzgerald - Let's Call the Whole Things Off
71. Ella Fitzgerald - All of You
72. Ella Fitzgerald - I've Got You Under My Skin
73. Ella Fitzgerald - The Tender Trap
74. Ella Fitzgerald - Someone to Watch over Me
75. Ella Fitzgerald - I Love Paris
76. Ella Fitzgerald - A Tisket a Tasket
77. Ella Fitzgerald - Midnite in Harlem
78. Ella Fitzgerald - Learnin' the Blues
79. Ella Fitzgerald - Undecided
80. Ella Fitzgerald - Later
81. Ella Fitzgerald - Laughing on the Outside
82. Ella Fitzgerald - That Old Black Magic
83. Ella Fitzgerald - The Swingin' Sheperd Blues
84. Ella Fitzgerald - I Get Kick out of You
85. Ella Fitzgerald - What Is This Thing Called Love
86. Ella Fitzgerald - Let's Do It
87. Ella Fitzgerald - The Lady Is a Tramp (Arranged By Buddy Bregman)
88. Ella Fitzgerald - Willow Weep for Me
89. Ella Fitzgerald - Liza
90. Ella Fitzgerald - This Can't Be Love (Arranged By Buddy Bregman)
91. Ella Fitzgerald - Manhattan
92. Ella Fitzgerald - Midnight Sun
93. Ella Fitzgerald - Night and Day
94. Ella Fitzgerald - Oh, Lady Be Good
95. Ella Fitzgerald - The Man I Love
96. Ella Fitzgerald - Satin Doll
97. Ella Fitzgerald - Sophisticated Lady
98. Ella Fitzgerald - Moanin-Low
99. Ella Fitzgerald - They All Laughed
100. Ella Fitzgerald - You Took Advantage of Me (Arranged By Buddy Bregman)

foobar2000 1.6.2 / Dynamic Range Meter 1.1.1
log date: 2021-07-13 16:31:09

––––––––––––––––––––––––––––––––––––––––
Analyzed: Ella Fitzgerald / 100 Essentials of Ella Fitzgerald (Mono Version)
––––––––––––––––––––––––––––––––––––––––

DR Peak RMS Duration Track
––––––––––––––––––––––––––––––––––––––––
DR11 -2.52 dB -16.22 dB 2:55 01-Lullaby of Birdland
DR12 -5.26 dB -20.04 dB 3:04 02-Dream a Little Dream of Me
DR12 -2.15 dB -17.68 dB 4:59 03-Summertime
DR10 -6.58 dB -19.66 dB 3:35 04-Everyttime We Say Goodbye
DR14 -2.38 dB -19.49 dB 3:57 05-Makin' Whoopee
DR11 -5.70 dB -20.43 dB 3:32 06-A Foggy Day
DR10 -3.67 dB -16.94 dB 2:59 07-A New Shade of Blues
DR11 -8.33 dB -21.11 dB 3:29 08-All of Me
DR9 -7.12 dB -20.26 dB 3:14 09-But Not for Me
DR12 -3.06 dB -16.92 dB 4:46 10-April in Paris
DR14 -6.03 dB -22.45 dB 3:09 11-Beginner's Luck
DR11 -4.10 dB -17.26 dB 2:45 12-Blue Lou
DR11 -2.81 dB -17.07 dB 2:40 13-A-Tisket A-Tasket
DR15 -6.45 dB -23.74 dB 2:33 14-Clap Hands! Here Comes Charley
DR12 -4.02 dB -18.71 dB 2:59 15-Close Your Eyes
DR11 -6.19 dB -19.27 dB 3:01 16-Hard Hearted Hannah
DR15 -6.37 dB -25.60 dB 2:37 17-Crying Mood
DR11 -8.16 dB -21.32 dB 3:59 18-Day Dream
DR12 -4.23 dB -18.78 dB 3:55 19-A Fine Romance
DR13 -5.00 dB -21.58 dB 7:40 20-Do Nothing Till You Hear from Me
DR12 -1.43 dB -17.18 dB 5:29 21-Bess, You Is My Woman Now
DR14 -5.34 dB -22.98 dB 6:01 22-Autumn in New-York
DR11 -5.87 dB -19.62 dB 2:41 23-Bidin' My Time
DR14 -3.03 dB -18.74 dB 4:59 24-Don't Be That Way
DR11 -7.04 dB -20.00 dB 3:53 25-Caravan
DR12 -1.43 dB -17.49 dB 3:39 26-Begin the Beguine
DR11 -7.84 dB -20.93 dB 3:49 27-Drop Me off in Harlem
DR11 -6.90 dB -20.37 dB 3:14 28-Early Autumn
DR11 -6.39 dB -20.22 dB 3:35 29-Boy Wanted
DR11 -8.07 dB -22.72 dB 3:27 30-Easy to Love
DR12 -2.08 dB -17.76 dB 3:11 31-Basin Street Blues
DR14 -7.47 dB -23.86 dB 3:05 32-Chew Chew Chew
DR10 -5.85 dB -19.64 dB 2:01 33-Ace in the Hole
DR11 -5.93 dB -20.10 dB 3:47 34-Boy What Love Has Done to Me
DR13 -4.27 dB -20.48 dB 2:29 35-Flying Home
DR13 -3.51 dB -18.83 dB 2:28 36-Comes Love
DR12 -5.22 dB -19.57 dB 3:23 37-Funny Face
DR11 -3.89 dB -16.72 dB 2:26 38-Goody Goody
DR11 -5.05 dB -18.44 dB 3:03 39-Air Mail Special
DR11 -4.51 dB -17.25 dB 3:24 40-Cotton Tail
DR14 -5.96 dB -22.90 dB 3:10 41-Holiday in Harlem
DR13 -6.42 dB -22.04 dB 3:49 42-How Long Has This Been Going on?
DR11 -7.10 dB -20.28 dB 3:24 43-Don't Fence Me In
DR12 -2.20 dB -17.12 dB 2:15 44-Between the Devil and the Deep Blue Sea
DR13 -0.10 dB -15.98 dB 3:52 45-I Got Plenty o' Nuttin'
DR12 -7.19 dB -21.96 dB 2:40 46-Clementine
DR13 -6.34 dB -22.50 dB 3:11 47-I 'Ll Walk Alone
DR11 -5.69 dB -20.12 dB 2:31 48-Clap Yo' Hands
DR12 -5.78 dB -20.21 dB 3:51 49-Do I Love You
DR10 -6.21 dB -18.93 dB 4:07 50-I Let a Song Go out of My Heart
DR10 -8.50 dB -21.47 dB 2:51 51-I'll Always Be in Love with You
DR10 -7.85 dB -19.65 dB 2:43 52-Brodway
DR11 -5.37 dB -19.15 dB 3:18 53-How High the Moon
DR12 -5.72 dB -21.79 dB 2:45 54-In a Sentimental Mood
DR13 -5.46 dB -21.41 dB 2:39 55-In the Evening
DR11 -5.13 dB -18.47 dB 3:32 56-Just One of Those Things
DR13 -5.64 dB -23.69 dB 3:03 57-Miss Otis Regrets
DR14 -3.43 dB -19.06 dB 5:14 58-Stompin' at the Savoy
DR10 -6.83 dB -19.26 dB 3:08 59-Lady Be Good
DR10 -8.89 dB -21.42 dB 6:40 60-Take the a Train
DR14 -3.14 dB -19.18 dB 4:03 61-Love Is Here to Stay
DR11 -6.83 dB -19.92 dB 3:33 62-You Can Depend on Me
DR12 -4.41 dB -20.14 dB 2:40 63-In the Still of the Night
DR13 -2.63 dB -17.46 dB 3:18 64-Don'cha Go'way Mad
DR11 -4.51 dB -20.50 dB 3:25 65-Isn't It a Pity
DR11 -5.20 dB -18.83 dB 2:22 66-Dummy Song
DR12 -5.90 dB -20.75 dB 3:16 67-I've Got a Crush on You
DR13 -5.29 dB -22.71 dB 7:41 68-These Foolish Things
DR11 -5.66 dB -20.34 dB 5:15 69-Ella Hums the Blues
DR13 -3.96 dB -18.89 dB 4:14 70-Let's Call the Whole Things Off
DR11 -5.81 dB -19.41 dB 1:45 71-All of You
DR12 -6.63 dB -20.03 dB 2:45 72-I've Got You Under My Skin
DR12 -6.19 dB -20.35 dB 3:00 73-The Tender Trap
DR10 -7.19 dB -20.38 dB 3:15 74-Someone to Watch over Me
DR10 -7.25 dB -19.90 dB 5:02 75-I Love Paris
DR13 -1.03 dB -16.14 dB 2:21 76-A Tisket a Tasket
DR13 -5.06 dB -21.08 dB 2:35 77-Midnite in Harlem
DR15 -3.62 dB -20.77 dB 7:18 78-Learnin' the Blues
DR11 -2.81 dB -15.67 dB 3:19 79-Undecided
DR12 -6.32 dB -21.81 dB 2:33 80-Later
DR9 -8.08 dB -20.02 dB 4:50 81-Laughing on the Outside
DR12 -3.98 dB -18.41 dB 2:30 82-That Old Black Magic
DR12 -1.77 dB -16.45 dB 2:42 83-The Swingin' Sheperd Blues
DR14 -1.96 dB -19.65 dB 4:21 84-I Get Kick out of You
DR11 -6.57 dB -19.26 dB 2:06 85-What Is This Thing Called Love
DR13 -1.73 dB -18.03 dB 3:36 86-Let's Do It
DR10 -6.63 dB -18.49 dB 3:24 87-The Lady Is a Tramp (Arranged By Buddy Bregman)
DR13 -4.48 dB -20.05 dB 4:21 88-Willow Weep for Me
DR15 -4.24 dB -22.15 dB 2:49 89-Liza
DR10 -7.49 dB -20.19 dB 2:56 90-This Can't Be Love (Arranged By Buddy Bregman)
DR11 -2.53 dB -15.88 dB 2:52 91-Manhattan
DR13 -3.19 dB -20.74 dB 3:57 92-Midnight Sun
DR13 -1.03 dB -17.36 dB 3:05 93-Night and Day
DR13 -2.23 dB -20.24 dB 4:00 94-Oh, Lady Be Good
DR12 -4.65 dB -19.57 dB 3:53 95-The Man I Love
DR10 -6.60 dB -18.88 dB 3:26 96-Satin Doll
DR13 -6.57 dB -22.03 dB 5:21 97-Sophisticated Lady
DR9 -6.65 dB -18.53 dB 2:40 98-Moanin-Low
DR13 -3.86 dB -19.64 dB 3:48 99-They All Laughed
DR10 -6.05 dB -18.65 dB 3:29 100-You Took Advantage of Me (Arranged By Buddy Bregman)
––––––––––––––––––––––––––––––––––––––––

Number of tracks: 100
Official DR value: DR12

Samplerate: 96000 Hz
Channels: 2
Bits per sample: 24
Bitrate: 1294 kbps
Codec: FLAC
================================================================================



Thanks to the Original customer.