Tags
Language
Tags
April 2024
Su Mo Tu We Th Fr Sa
31 1 2 3 4 5 6
7 8 9 10 11 12 13
14 15 16 17 18 19 20
21 22 23 24 25 26 27
28 29 30 1 2 3 4

Ella Fitzgerald - Ella & Louis, Part 2 (2024) [Official Digital Download 24/96]

Posted By: pyatak
Ella Fitzgerald - Ella & Louis, Part 2 (2024) [Official Digital Download 24/96]

Ella Fitzgerald - Ella & Louis, Part 2 (2024) [Official Digital Download 24/96]
FLAC (tracks) 24-bit/96 kHz | Front Cover | Time - 44:00 minutes | 472 MB
Vocal Jazz | Studio Master, Official Digital Download

Ella Jane Fitzgerald (April 25, 1917 – June 15, 1996) was an American jazz singer, sometimes referred to as the "First Lady of Song", "Queen of Jazz", and "Lady Ella". She was noted for her purity of tone, impeccable diction, phrasing, timing, intonation, and a "horn-like" improvisational ability, particularly in her scat singing.

After a tumultuous adolescence, Fitzgerald found stability in musical success with the Chick Webb Orchestra, performing across the country but most often associated with the Savoy Ballroom in Harlem. Her rendition of the nursery rhyme "A-Tisket, A-Tasket" helped boost both her and Webb to national fame. After taking over the band when Webb died, Fitzgerald left it behind in 1942 to start her solo career. Her manager was Moe Gale, co-founder of the Savoy,[1] until she turned the rest of her career over to Norman Granz, who founded Verve Records to produce new records by Fitzgerald. With Verve, she recorded some of her more widely noted works, particularly her interpretations of the Great American Songbook.

Fitzgerald also appeared in films and as a guest on popular television shows in the second half of the twentieth century. Outside her solo career, she created music with Louis Armstrong, Duke Ellington, and The Ink Spots. These partnerships produced songs such as "Dream a Little Dream of Me", "Cheek to Cheek", "Into Each Life Some Rain Must Fall", and "It Don't Mean a Thing (If It Ain't Got That Swing)". In 1993, after a career of nearly sixty years, she gave her last public performance. Three years later, she died at age 79 after years of declining health. Her accolades included 14 Grammy Awards, the National Medal of Arts, the NAACP's inaugural President's Award, and the Presidential Medal of Freedom.

TRACKLIST

1. Ella Fitzgerald - Don't Be That Way (Digitally Restored)
2. Ella Fitzgerald - Makin' Whoopee (Digitally Restored)
3. Ella Fitzgerald - They All Laughed (Digitally Restored)
4. Ella Fitzgerald - Comes Love (Digitally Restored)
5. Ella Fitzgerald - Autumn In New York (Digitally Restored)
6. Ella Fitzgerald - Let's Do It (Let's Fall In Love) (Digitally Restored)
7. Ella Fitzgerald - Stompin' At Savoy (Digitally Restored)
8. Ella Fitzgerald - I Won't Dance (Digitally Restored)
9. Ella Fitzgerald - Gee, Baby, Aint't I Good To You? (Digitally Restored)

foobar2000 1.6.2 / Dynamic Range Meter 1.1.1
log date: 2024-02-23 19:03:33

––––––––––––––––––––––––––––––––––––––––
Analyzed: Ella Fitzgerald / Ella & Louis, Part 2
––––––––––––––––––––––––––––––––––––––––

DR Peak RMS Duration Track
––––––––––––––––––––––––––––––––––––––––
DR13 -3.07 dB -18.07 dB 4:58 01-Don't Be That Way (Digitally Restored)
DR11 -4.24 dB -18.09 dB 3:56 02-Makin' Whoopee (Digitally Restored)
DR12 -3.92 dB -18.35 dB 3:48 03-They All Laughed (Digitally Restored)
DR12 -4.48 dB -17.93 dB 2:27 04-Comes Love (Digitally Restored)
DR13 -1.72 dB -18.51 dB 5:58 05-Autumn In New York (Digitally Restored)
DR12 -3.16 dB -18.37 dB 8:42 06-Let's Do It (Let's Fall In Love) (Digitally Restored)
DR13 -3.17 dB -18.22 dB 5:12 07-Stompin' At Savoy (Digitally Restored)
DR12 -4.12 dB -18.00 dB 4:45 08-I Won't Dance (Digitally Restored)
DR14 -3.17 dB -19.11 dB 4:13 09-Gee, Baby, Aint't I Good To You? (Digitally Restored)
––––––––––––––––––––––––––––––––––––––––

Number of tracks: 9
Official DR value: DR12

Samplerate: 96000 Hz
Channels: 2
Bits per sample: 24
Bitrate: 1440 kbps
Codec: FLAC
================================================================================



Thanks to the Original customer.