Etta James - Etta James The Montreux Years (2021) [Official Digital Download]

Posted By: pyatak
Etta James - Etta James The Montreux Years (2021) [Official Digital Download]

Etta James - Etta James The Montreux Years (2021) [Official Digital Download]
FLAC (tracks) 24-bit/44.1 kHz | Front Cover | Time - 02:38:54 minutes | 1,73 GB
Soul | Label: BMG Rights Management (UK) Ltd, Official Digital Download

Etta James: The Montreux Years is released as part of a brand new Montreux Jazz Festival and BMG collection series “The Montreux Years”. The collections will uncover legendary performances by the world’s most iconic artists alongside rare and never-before-released recordings from the festival’s rich 55-year history, remastered in superlative audio. Each collection will be accompanied by exclusive liner notes and previously unseen photography.

Etta James: The Montreux Years is a treasure trove of timeless classics, powerful and electrifying performances and raw, soaring vocals by one of the greatest ever female vocalists. The collection, featuring recordings from James’ Montreux Jazz Festival concerts in 1977, 1978, 1989 1990 and 1993, encapsulates and reflects Etta’s dynamic artistry and long-lasting impact. Spanning performances from across three decades, ‘Etta James: The Montreux Years’ offers deeply personal and intimate snapshots into James’ acclaimed musical journey, highlights and her phenomenal career.

From one of Etta James’ earliest successes, the infectious and endlessly elegant Something’s Got A Hold On Me, a medley that consist of At Last, Trust In Me and Sunday Kind of Love, which is a fusion of highlights from the early 60s, to the raw and emotional I’d Rather Go Blind and soulful horn-driven Tell Mama. The collection closes with Baby What You Want Me To Do, James’ homage to Jimmy Reed and the encore of her 1979 concert.

TRACKLIST

01. Etta James - Breakin' Up Somebody's Home (Live – Montreux Jazz Festival 1990)
02. Etta James - I Got the Will (Live – Montreux Jazz Festival 1989)
03. Etta James - A Lover Is Forever (Live – Montreux Jazz Festival 1993)
04. Etta James - Damn Your Eyes (Live – Montreux Jazz Festival 1989)
05. Etta James - Tell Mama (Live – Montreux Jazz Festival 1977)
06. Etta James - Running and Hiding Blues (Live – Montreux Jazz Festival 1990)
07. Etta James - Something's Got a Hold On Me (Live – Montreux Jazz Festival 1989)
08. Etta James - Beware (Live – Montreux Jazz Festival 1993)
09. Etta James - Come to Mama (Live – Montreux Jazz Festival 1990)
10. Etta James - Medley: At Last / Trust in Me / Sunday Kind of Love (Live – Montreux Jazz Festival 1989)
11. Etta James - I Sing the Blues for You (Live – Montreux Jazz Festival 1993)
12. Etta James - Baby What You Want Me to Do (Encore) (Live – Montreux Jazz Festival 1978)
13. Etta James - Respect Yourself (Live – Montreux Jazz Festival 1975)
14. Etta James - Drown in My Own Tears (Live – Montreux Jazz Festival 1975)
15. Etta James - W-O-M-A-N (Live – Montreux Jazz Festival 1975)
16. Etta James - Dust My Broom (Live – Montreux Jazz Festival 1975)
17. Etta James - I'd Rather Go Blind (Live – Montreux Jazz Festival 1977)
18. Etta James - All the Way Down (Live – Montreux Jazz Festival 1975)
19. Etta James - Baby What Do You Want Me to Do (Live – Montreux Jazz Festival 1975)
20. Etta James - Rock Me Baby (Live – Montreux Jazz Festival 1975)
21. Etta James - Stormy Monday (Live – Montreux Jazz Festival 1975)
22. Etta James - Tell Mama (Live – Montreux Jazz Festival 1975)

foobar2000 1.6.2 / Dynamic Range Meter 1.1.1
log date: 2021-06-24 20:36:26

––––––––––––––––––––––––––––––––––––––––
Analyzed: Etta James / Etta James: The Montreux Years
––––––––––––––––––––––––––––––––––––––––

DR Peak RMS Duration Track
––––––––––––––––––––––––––––––––––––––––
DR10 -0.71 dB -12.89 dB 5:28 01-Breakin' Up Somebody's Home (Live – Montreux Jazz Festival 1990)
DR9 -0.91 dB -11.84 dB 3:33 02-I Got the Will (Live – Montreux Jazz Festival 1989)
DR13 -1.71 dB -19.66 dB 4:40 03-A Lover Is Forever (Live – Montreux Jazz Festival 1993)
DR10 -0.73 dB -15.57 dB 6:34 04-Damn Your Eyes (Live – Montreux Jazz Festival 1989)
DR9 -0.34 dB -10.84 dB 4:14 05-Tell Mama (Live – Montreux Jazz Festival 1977)
DR8 -0.38 dB -10.80 dB 5:11 06-Running and Hiding Blues (Live – Montreux Jazz Festival 1990)
DR9 -0.32 dB -11.22 dB 6:44 07-Something's Got a Hold On Me (Live – Montreux Jazz Festival 1989)
DR9 -0.09 dB -13.94 dB 5:39 08-Beware (Live – Montreux Jazz Festival 1993)
DR9 -1.48 dB -13.47 dB 6:07 09-Come to Mama (Live – Montreux Jazz Festival 1990)
DR9 -2.05 dB -16.14 dB 8:02 10-Medley: At Last / Trust in Me / Sunday Kind of Love (Live – Montreux Jazz Festival 1989)
DR7 -1.08 dB -11.05 dB 8:33 11-I Sing the Blues for You (Live – Montreux Jazz Festival 1993)
DR9 -1.64 dB -12.58 dB 12:28 12-Baby What You Want Me to Do (Encore) (Live – Montreux Jazz Festival 1978)
DR10 -0.56 dB -14.57 dB 11:25 13-Respect Yourself (Live – Montreux Jazz Festival 1975)
DR10 -0.64 dB -15.88 dB 11:14 14-Drown in My Own Tears (Live – Montreux Jazz Festival 1975)
DR11 -0.63 dB -15.11 dB 11:11 15-W-O-M-A-N (Live – Montreux Jazz Festival 1975)
DR8 -0.57 dB -11.19 dB 5:37 16-Dust My Broom (Live – Montreux Jazz Festival 1975)
DR13 -0.36 dB -19.47 dB 9:23 17-I'd Rather Go Blind (Live – Montreux Jazz Festival 1977)
DR9 -0.58 dB -12.75 dB 6:40 18-All the Way Down (Live – Montreux Jazz Festival 1975)
DR9 -0.35 dB -12.87 dB 6:04 19-Baby What Do You Want Me to Do (Live – Montreux Jazz Festival 1975)
DR8 -0.53 dB -11.55 dB 5:24 20-Rock Me Baby (Live – Montreux Jazz Festival 1975)
DR10 -0.62 dB -14.91 dB 10:07 21-Stormy Monday (Live – Montreux Jazz Festival 1975)
DR7 -0.07 dB -8.64 dB 4:39 22-Tell Mama (Live – Montreux Jazz Festival 1975)
––––––––––––––––––––––––––––––––––––––––

Number of tracks: 22
Official DR value: DR9

Samplerate: 44100 Hz
Channels: 2
Bits per sample: 24
Bitrate: 1652 kbps
Codec: FLAC
================================================================================



Thanks to the Original customer.