Tags
Language
Tags

Franz Ferdinand - Hits To The Head (2022) [Official Digital Download 24/96]

Posted By: pyatak
Franz Ferdinand - Hits To The Head (2022) [Official Digital Download 24/96]

Franz Ferdinand - Hits To The Head (2022) [Official Digital Download 24/96]
FLAC (tracks) 24-bit/96 kHz | Front Cover | Time - 69:30 minutes | 1,47 GB
Alternative Rock | Label: Domino Records, Official Digital Download

'Hits to the Head' is a 20-track greatest hits collection showcasing the world-conquering success of the band's career to date. The album also features two brand-new tracks 'Billy Goodbye' and 'Curious', produced by Alex Kapranos, Julian Corrie and Stuart Price (Dua Lipa, Madonna, Pet Shop Boys). This deluxe edition is in a hardback book-style sleeve with 48 page case-bound booklet featuring liner notes by JD Beauvallet (Les InRocks), lyrics & exclusive photos.

TRACKLIST

01. Franz Ferdinand - Darts Of Pleasure
02. Franz Ferdinand - Take Me Out
03. Franz Ferdinand - The Dark Of The Matinée
04. Franz Ferdinand - Michael
05. Franz Ferdinand - This Fire
06. Franz Ferdinand - Do You Want To
07. Franz Ferdinand - Walk Away (HTTH Edit)
08. Franz Ferdinand - The Fallen (HTTH Edit)
09. Franz Ferdinand - Outsiders
10. Franz Ferdinand - Lucid Dreams
11. Franz Ferdinand - Ulysses
12. Franz Ferdinand - No You Girls
13. Franz Ferdinand - Right Action
14. Franz Ferdinand - Evil Eye
15. Franz Ferdinand - Love Illumination
16. Franz Ferdinand - Stand On The Horizon
17. Franz Ferdinand - Always Ascending
18. Franz Ferdinand - Glimpse Of Love
19. Franz Ferdinand - Curious
20. Franz Ferdinand - Billy Goodbye

foobar2000 1.6.2 / Dynamic Range Meter 1.1.1
log date: 2022-03-11 03:37:19

––––––––––––––––––––––––––––––––––––––––
Analyzed: Franz Ferdinand / Hits To The Head
––––––––––––––––––––––––––––––––––––––––

DR Peak RMS Duration Track
––––––––––––––––––––––––––––––––––––––––
DR5 -1.10 dB -7.15 dB 3:00 01-Darts Of Pleasure
DR4 -1.10 dB -6.62 dB 4:00 02-Take Me Out
DR5 -1.10 dB -6.80 dB 4:06 03-The Dark Of The Matinée
DR6 -1.10 dB -7.61 dB 3:24 04-Michael
DR6 -1.10 dB -7.96 dB 3:34 05-This Fire
DR6 -1.10 dB -7.83 dB 3:37 06-Do You Want To
DR5 -1.10 dB -7.11 dB 3:29 07-Walk Away (HTTH Edit)
DR5 -1.10 dB -7.34 dB 2:58 08-The Fallen (HTTH Edit)
DR5 -1.10 dB -7.63 dB 3:38 09-Outsiders
DR6 -1.10 dB -7.96 dB 3:44 10-Lucid Dreams
DR5 -1.10 dB -8.93 dB 3:11 11-Ulysses
DR6 -1.10 dB -7.95 dB 3:23 12-No You Girls
DR6 -1.10 dB -8.67 dB 2:57 13-Right Action
DR6 -1.10 dB -8.57 dB 2:46 14-Evil Eye
DR6 -1.10 dB -8.18 dB 3:45 15-Love Illumination
DR5 -1.10 dB -8.43 dB 4:25 16-Stand On The Horizon
DR5 -1.10 dB -7.40 dB 3:50 17-Always Ascending
DR5 -1.10 dB -7.52 dB 3:13 18-Glimpse Of Love
DR6 -1.10 dB -7.96 dB 2:50 19-Curious
DR5 -1.10 dB -7.06 dB 3:41 20-Billy Goodbye
––––––––––––––––––––––––––––––––––––––––

Number of tracks: 20
Official DR value: DR5

Samplerate: 96000 Hz
Channels: 2
Bits per sample: 24
Bitrate: 3080 kbps
Codec: FLAC
================================================================================



Thanks to the Original customer.