Tags
Language
Tags

Funk, Inc. - Superfunk (Remastered) (1973/2020) [Official Digital Download 24/192]

Posted By: pyatak
Funk, Inc. - Superfunk (Remastered) (1973/2020) [Official Digital Download 24/192]

Funk, Inc. - Superfunk (Remastered) (1973/2020) [Official Digital Download 24/192]
FLAC (tracks) 24-bit/192 kHz | Front Cover | Time - 36:41 minutes | 1,38 GB
Funk | Label: Craft Recordings, Official Digital Download

One of Funk Inc's greatest albums – and a really tight batch of funky tunes given some stellar production by David Axelrod! The band's a bit tighter than on earlier releases – leaving behind the hard jazz-jam sound for a more together soul-oriented one, heard to best effect on the album's enduring classic, "Goodbye, So Long" – a rolling funky tune that features vocals on the chorus, and an unbelievably catchy instrumental sound that you might recognize instantly from its use as a sample over the years. The rest of the record's just as great – and the band runs through The Meters' classic "Message From The Meters", Barry White's funky "I'm Gonna Love You Just A Little More Babe", and a great rendition of the electric jazz classic "The Hill Where The Lord Hides".

TRACKLIST

1. Funk, Inc. - Message From The Meters
2. Funk, Inc. - Goodbye, So Long
3. Funk, Inc. - The Hill Where The Lord Hides
4. Funk, Inc. - Honey, I Love You
5. Funk, Inc. - Just Don't Mean A Thing
6. Funk, Inc. - I'm Going To Love You

foobar2000 1.6.2 / Dynamic Range Meter 1.1.1
log date: 2020-11-14 06:49:52

––––––––––––––––––––––––––––––––––––––––
Analyzed: Funk, Inc. / Superfunk
––––––––––––––––––––––––––––––––––––––––

DR Peak RMS Duration Track
––––––––––––––––––––––––––––––––––––––––
DR10 -0.50 dB -12.16 dB 6:11 01-Message From The Meters
DR11 -0.50 dB -12.72 dB 4:26 02-Goodbye, So Long
DR9 -0.50 dB -11.29 dB 8:02 03-The Hill Where The Lord Hides
DR11 -0.50 dB -13.37 dB 3:24 04-Honey, I Love You
DR9 -0.50 dB -10.92 dB 4:57 05-Just Don't Mean A Thing
DR11 -0.50 dB -13.88 dB 9:44 06-I'm Going To Love You
––––––––––––––––––––––––––––––––––––––––

Number of tracks: 6
Official DR value: DR10

Samplerate: 192000 Hz
Channels: 2
Bits per sample: 24
Bitrate: 5118 kbps
Codec: FLAC
================================================================================



Thanks to the Original customer.