Tags
Language
Tags

Kamiya Yuki - Ravel & de Falla- Piano Works (2021) [Official Digital Download 24/96]

Posted By: pyatak
Kamiya Yuki - Ravel & de Falla- Piano Works (2021) [Official Digital Download 24/96]

Kamiya Yuki - Ravel & de Falla - Piano Works (2021) [Official Digital Download 24/96]
FLAC (tracks) 24-bit/96 kHz | Front Cover | Time - 48:28 minutes | 812 MB
Classical | Label: onorité, Official Digital Download

Yuki Kamiya is a new generation born in 1994. The music combines sensory beauty of color and three-dimensional feeling, and stimulates the five senses of the listener with a taste like a craft made from particles of sound. In this debut album, too, the transparent touch is used to create an extremely high-resolution sound, and the masterpieces of Ravel and de Falla are vividly dynamic.

TRACKLIST

1. Kamiya Yuki - Prélude for Piano, M. 65
2. Kamiya Yuki - I. Modéré
3. Kamiya Yuki - II. Mouvement de menuet
4. Kamiya Yuki - III. Animé
5. Kamiya Yuki - Pavane pour une infante défunte, M. 19
6. Kamiya Yuki - I. Ondine
7. Kamiya Yuki - II. Le gibet
8. Kamiya Yuki - III. Scarbo
9. Kamiya Yuki - No. 8, Danza ritual del fuego (1920 Version) [Arr. for Piano]
10. Kamiya Yuki - Danza española No. 1 (Arr. for Piano)

foobar2000 1.6.2 / Dynamic Range Meter 1.1.1
log date: 2021-12-04 18:42:35

––––––––––––––––––––––––––––––––––––––––
Analyzed: Kamiya Yuki / Ravel & de Falla: Piano Works
––––––––––––––––––––––––––––––––––––––––

DR Peak RMS Duration Track
––––––––––––––––––––––––––––––––––––––––
DR12 -3.69 dB -21.28 dB 1:30 01-Prélude for Piano, M. 65
DR14 -2.96 dB -23.01 dB 4:21 02-I. Modéré
DR14 -1.49 dB -24.77 dB 3:06 03-II. Mouvement de menuet
DR13 -1.22 dB -19.12 dB 3:56 04-III. Animé
DR15 -4.62 dB -25.31 dB 6:31 05-Pavane pour une infante défunte, M. 19
DR16 -2.11 dB -23.77 dB 6:43 06-I. Ondine
DR16 -8.21 dB -30.08 dB 5:46 07-II. Le gibet
DR15 -1.22 dB -23.31 dB 9:20 08-III. Scarbo
DR14 -1.22 dB -20.23 dB 4:03 09-No. 8, Danza ritual del fuego (1920 Version) [Arr. for Piano]
DR12 -1.24 dB -17.77 dB 3:23 10-Danza española No. 1 (Arr. for Piano)
––––––––––––––––––––––––––––––––––––––––

Number of tracks: 10
Official DR value: DR14

Samplerate: 96000 Hz
Channels: 2
Bits per sample: 24
Bitrate: 2437 kbps
Codec: FLAC
================================================================================



Thanks to the Original customer.