Tags
Language
Tags

Lightnin' Hopkins - The Blues Giant (Remastered) (1973/2020) [Official Digital Download 24/96]

Posted By: pyatak
Lightnin' Hopkins - The Blues Giant (Remastered) (1973/2020) [Official Digital Download 24/96]

Lightnin' Hopkins - The Blues Giant (Remastered) (1973/2020) [Official Digital Download 24/96]
FLAC (tracks) 24-bit/96 kHz | Front Cover | Time - 42:08 minutes | 699 MB
Blues | Studio Master, Official Digital Download

Samuel John "Lightnin'" Hopkins (March 15, 1912 – January 30, 1982) was an American country blues singer, songwriter, guitarist and occasional pianist, from Centerville, Texas. Rolling Stone magazine ranked him number 71 on its list of the 100 greatest guitarists of all time.

The musicologist Robert "Mack" McCormick opined that Hopkins is "the embodiment of the jazz-and-poetry spirit, representing its ancient form in the single creator whose words and music are one act".

TRACKLIST

01. Lightnin' Hopkins - Big Car Blues
02. Lightnin' Hopkins - Shaggy Dog
03. Lightnin' Hopkins - I'll Be Gone
04. Lightnin' Hopkins - Shining Moon
05. Lightnin' Hopkins - Shake It Baby
06. Lightnin' Hopkins - Goin' Back Home
07. Lightnin' Hopkins - Good Times
08. Lightnin' Hopkins - What Did I Say
09. Lightnin' Hopkins - Don't Wake Me
10. Lightnin' Hopkins - Talk of the Town

foobar2000 1.6.2 / Dynamic Range Meter 1.1.1
log date: 2020-12-15 17:48:58

––––––––––––––––––––––––––––––––––––––––
Analyzed: Lightnin' Hopkins / The Blues Giant (Remastered)
––––––––––––––––––––––––––––––––––––––––

DR Peak RMS Duration Track
––––––––––––––––––––––––––––––––––––––––
DR14 -1.32 dB -20.51 dB 6:58 01-Big Car Blues
DR11 -1.27 dB -15.39 dB 2:41 02-Shaggy Dog
DR13 -1.45 dB -17.33 dB 5:00 03-I'll Be Gone
DR11 -2.86 dB -17.76 dB 4:02 04-Shining Moon
DR13 -1.22 dB -15.82 dB 4:53 05-Shake It Baby
DR14 -1.22 dB -18.05 dB 4:51 06-Goin' Back Home
DR13 -1.22 dB -16.10 dB 4:09 07-Good Times
DR11 -2.04 dB -15.37 dB 2:22 08-What Did I Say
DR12 -1.22 dB -14.49 dB 4:40 09-Don't Wake Me
DR12 -1.22 dB -14.76 dB 2:35 10-Talk of the Town
––––––––––––––––––––––––––––––––––––––––

Number of tracks: 10
Official DR value: DR12

Samplerate: 96000 Hz
Channels: 2
Bits per sample: 24
Bitrate: 2281 kbps
Codec: FLAC
================================================================================



Thanks to the Original customer.