Tags
Language
Tags

Luca Guglielmi - J.S. Bach- The well-tempered Clavier, Book II (2022) [Official Digital Download 24/96]

Posted By: pyatak
Luca Guglielmi - J.S. Bach- The well-tempered Clavier, Book II (2022) [Official Digital Download 24/96]

Luca Guglielmi - J.S. Bach- The well-tempered Clavier, Book II (2022) [Official Digital Download 24/96]
FLAC (tracks) 24-bit/96 kHz | Front Cover | Time - 02:12:01 minutes | 2,28 GB
Classical | Label: CAvi-music, Official Digital Download

Das Wohltemperirte Clavier, a collection of preludes and fugues in all major and minor keys completed by Johann Sebastian Bach in 1722, was clearly modelled along the lines of Ariadne Musica by Johann Caspar Ferdinand Fischer (1662-1746, Kapellmeister in Baden from 1715 to 1746) an organ music anthology published for the first time in 1702 and probably known by Bach in its second 1715 edition. Bach took Fischer's original layout of 20 keys and expanded it to a total of 24, thereby creating the first self-contained collection of music written for the entire corpus of existing keys.

Bach, who, on the handwritten title page of the beautiful copy now preserved in the Berlin Staatsbibliothek (Mus. Ms. P 415), signed as Hochf. Anhalt-Cthenischen Capel-Meistern und Directore derer Cammer Musiquen, clearly indicated his purpose in composing this incomparable collection: "for the profit of musical youth desirous of learning, and especially for the pastime of those already skilled in this study."

Regarding the instrument we have chosen for this recording of Vol. II, we have selected a copy by Kerstin Schwarz of the fortepiano built by Gottfried Silbermann in 1749, now preserved in the Germanisches Nationalmuseum in Nuremberg. In recent years a clearer picture has emerged of Bach's instrumentarium, and one can infer that in the last ten years of his life he had a Silbermann fortepiano at his disposal. By then he regarded it as a valid alternative to the harpsichord, the clavichord, and the Lautenwerck, which, taken together, embodied the generic term Clavier. Silbermann, for his part, relied on Bach's assistance as Cantor to help him sell his valuable instruments (a fortepiano cost as much as a Capellmeister's annual salary!), and he was entirely indebted to Bartolomeo Cristofori for the design of his fortepiano mechanism, which he later applied to the robust makeup of harpsichords of late German build.

TRACKLIST

1. Luca Guglielmi - Prelude I in C Major, BWV 870 (Version B)
2. Luca Guglielmi - Fugue I à 3 in C Major, BWV 870
3. Luca Guglielmi - Prelude II in C Minor, BWV 871 (Version A)
4. Luca Guglielmi - Fugue II à 4 in C Minor, BWV 871
5. Luca Guglielmi - Prelude III in C-Sharp Major, BWV 872 (Version B)
6. Luca Guglielmi - Fugue III in C-Sharp Major, BWV 872
7. Luca Guglielmi - Prelude IV in C-Sharp Minor, BWV 873 (Version B)
8. Luca Guglielmi - Fugue IV à 3 in C-Sharp Minor, BWV 873
9. Luca Guglielmi - Prelude V in D Major, BWV 874 (Version A)
10. Luca Guglielmi - Fugue V à 4 in D Major, BWV 874
11. Luca Guglielmi - Prelude VI in D Minor, BWV 875 (Version A)
12. Luca Guglielmi - Fugue VI à 3 in D Minor, BWV 875
13. Luca Guglielmi - Prelude VII in E-Flat Major, BWV 876 (Version B)
14. Luca Guglielmi - Fugue VII à 4 in E-Flat Major, BWV 876
15. Luca Guglielmi - Prelude VIII in E-Flat Minor, BWV 877 (Versin A)
16. Luca Guglielmi - Fugue VIII à 4 in E-Flat Minor, BWV 877
17. Luca Guglielmi - Prelude IX in E Major, BWV 878 (Version A)
18. Luca Guglielmi - Fugue IX à 4 in E Major, BWV 878
19. Luca Guglielmi - Prelude X in E Minor, BWV 879 (Version B)
20. Luca Guglielmi - Fugue X à 3 in E Minor, BWV 879
21. Luca Guglielmi - Prelude XI in F Major, BWV 880 (Version A)
22. Luca Guglielmi - Fugue XI à 3 in F Major, BWV 880
23. Luca Guglielmi - Prelude XII in F Minor, BWV 881 (Version B)
24. Luca Guglielmi - Fugue XII à 3 in F Minor, BWV 881
25. Luca Guglielmi - Prelude XIII in F-Sharp Major, BWV 882 (Version A)
26. Luca Guglielmi - Fugue XIII à 3 in F-Sharp Major, BWV 882
27. Luca Guglielmi - Prelude XIV in F-Sharp Minor, BWV 883 (Version A)
28. Luca Guglielmi - Fugue XIV à 3 in F-Sharp Minor, BWV 883
29. Luca Guglielmi - Prelude XV in G Major, BWV 884 (Version A)
30. Luca Guglielmi - Fugue XV à 3 in G Major, BWV 884
31. Luca Guglielmi - Prelude XVI in G Minor, BWV 885 (Version A)
32. Luca Guglielmi - Fugue XVI à 4 in G Minor, BWV 885
33. Luca Guglielmi - Prelude XVII in A-Flat Major, BWV 886 (Version B)
34. Luca Guglielmi - Fugue XVII à 4 in A-Flat Major, BWV 886 (.)
35. Luca Guglielmi - Prelude XVIII in G-Sharp Minor, BWV 887 (Version A)
36. Luca Guglielmi - Fugue XVIII à 3 in G-Sharp Minor, BWV 887
37. Luca Guglielmi - Prelude XIX in A Major, BWV 888 (Version A)
38. Luca Guglielmi - Fugue XIX à 3 in A Major, BWV 888
39. Luca Guglielmi - Prelude XX in A Minor, BWV 889 (Version B)
40. Luca Guglielmi - Fugue XX à 3 in A Minor, BWV 889
41. Luca Guglielmi - Prelude XXI in B-Flat Major, BWV 890 (Version A)
42. Luca Guglielmi - Fugue XXI à 3 in B-Flat Major, BWV 890
43. Luca Guglielmi - Prelude XXII in B-Flat Minor, BWV 891 (Version A)
44. Luca Guglielmi - Fugue XXII à 4 in B-Flat Minor, BWV 891
45. Luca Guglielmi - Prelude XXIII in B Major, BWV 892 (Version A)
46. Luca Guglielmi - Fugue XXIII à 4 in B Major, BWV 892
47. Luca Guglielmi - Prelude XXIV in B Minor, BWV 893 (Version A)
48. Luca Guglielmi - Fugue XXIV à 3 in B Minor, BWV 893

foobar2000 1.6.2 / Dynamic Range Meter 1.1.1
log date: 2022-03-11 13:21:51

––––––––––––––––––––––––––––––––––––––––
Analyzed: Luca Guglielmi / J.S. Bach: The well-tempered Clavier, Book II
––––––––––––––––––––––––––––––––––––––––

DR Peak RMS Duration Track
––––––––––––––––––––––––––––––––––––––––
DR12 -7.92 dB -23.48 dB 2:37 01-Prelude I in C Major, BWV 870 (Version B)
DR11 -4.95 dB -20.52 dB 1:47 02-Fugue I à 3 in C Major, BWV 870
DR11 -7.82 dB -21.71 dB 1:21 03-Prelude II in C Minor, BWV 871 (Version A)
DR14 -4.74 dB -22.70 dB 2:14 04-Fugue II à 4 in C Minor, BWV 871
DR12 -7.23 dB -23.53 dB 2:50 05-Prelude III in C-Sharp Major, BWV 872 (Version B)
DR11 -6.97 dB -22.02 dB 2:11 06-Fugue III in C-Sharp Major, BWV 872
DR13 -8.36 dB -24.63 dB 4:05 07-Prelude IV in C-Sharp Minor, BWV 873 (Version B)
DR12 -6.00 dB -20.78 dB 2:45 08-Fugue IV à 3 in C-Sharp Minor, BWV 873
DR12 -3.67 dB -19.25 dB 2:50 09-Prelude V in D Major, BWV 874 (Version A)
DR13 -5.40 dB -22.96 dB 2:50 10-Fugue V à 4 in D Major, BWV 874
DR11 -4.35 dB -18.69 dB 1:39 11-Prelude VI in D Minor, BWV 875 (Version A)
DR12 -4.14 dB -22.55 dB 2:01 12-Fugue VI à 3 in D Minor, BWV 875
DR13 -6.81 dB -24.17 dB 3:18 13-Prelude VII in E-Flat Major, BWV 876 (Version B)
DR13 -5.53 dB -21.80 dB 2:29 14-Fugue VII à 4 in E-Flat Major, BWV 876
DR11 -7.10 dB -21.81 dB 2:09 15-Prelude VIII in E-Flat Minor, BWV 877 (Versin A)
DR14 -4.95 dB -24.01 dB 3:59 16-Fugue VIII à 4 in E-Flat Minor, BWV 877
DR12 -10.07 dB -24.78 dB 2:56 17-Prelude IX in E Major, BWV 878 (Version A)
DR13 -5.73 dB -22.69 dB 2:53 18-Fugue IX à 4 in E Major, BWV 878
DR12 -11.38 dB -26.39 dB 2:32 19-Prelude X in E Minor, BWV 879 (Version B)
DR12 -6.17 dB -21.06 dB 3:15 20-Fugue X à 3 in E Minor, BWV 879
DR13 -5.27 dB -22.39 dB 4:05 21-Prelude XI in F Major, BWV 880 (Version A)
DR12 -4.46 dB -19.96 dB 1:46 22-Fugue XI à 3 in F Major, BWV 880
DR13 -6.82 dB -25.63 dB 2:38 23-Prelude XII in F Minor, BWV 881 (Version B)
DR12 -5.84 dB -21.01 dB 2:13 24-Fugue XII à 3 in F Minor, BWV 881
DR12 -6.57 dB -22.52 dB 3:26 25-Prelude XIII in F-Sharp Major, BWV 882 (Version A)
DR13 -6.41 dB -21.89 dB 2:45 26-Fugue XIII à 3 in F-Sharp Major, BWV 882
DR13 -5.86 dB -23.80 dB 2:56 27-Prelude XIV in F-Sharp Minor, BWV 883 (Version A)
DR12 -5.51 dB -20.74 dB 3:08 28-Fugue XIV à 3 in F-Sharp Minor, BWV 883
DR11 -5.76 dB -19.79 dB 1:15 29-Prelude XV in G Major, BWV 884 (Version A)
DR11 -4.88 dB -20.82 dB 1:21 30-Fugue XV à 3 in G Major, BWV 884
DR14 -4.58 dB -21.54 dB 2:01 31-Prelude XVI in G Minor, BWV 885 (Version A)
DR13 -3.06 dB -20.19 dB 3:37 32-Fugue XVI à 4 in G Minor, BWV 885
DR13 -5.34 dB -22.29 dB 4:02 33-Prelude XVII in A-Flat Major, BWV 886 (Version B)
DR12 -5.06 dB -21.39 dB 2:55 34-Fugue XVII à 4 in A-Flat Major, BWV 886 (.)
DR12 -6.56 dB -21.90 dB 2:51 35-Prelude XVIII in G-Sharp Minor, BWV 887 (Version A)
DR13 -8.55 dB -25.15 dB 5:42 36-Fugue XVIII à 3 in G-Sharp Minor, BWV 887
DR12 -8.30 dB -24.16 dB 2:04 37-Prelude XIX in A Major, BWV 888 (Version A)
DR10 -5.21 dB -20.78 dB 1:25 38-Fugue XIX à 3 in A Major, BWV 888
DR12 -13.58 dB -28.64 dB 2:27 39-Prelude XX in A Minor, BWV 889 (Version B)
DR12 -4.94 dB -20.72 dB 1:54 40-Fugue XX à 3 in A Minor, BWV 889
DR13 -9.93 dB -25.30 dB 4:51 41-Prelude XXI in B-Flat Major, BWV 890 (Version A)
DR12 -8.68 dB -23.11 dB 2:18 42-Fugue XXI à 3 in B-Flat Major, BWV 890
DR12 -9.11 dB -23.44 dB 2:45 43-Prelude XXII in B-Flat Minor, BWV 891 (Version A)
DR13 -8.08 dB -23.80 dB 5:25 44-Fugue XXII à 4 in B-Flat Minor, BWV 891
DR13 -6.77 dB -22.61 dB 3:37 45-Prelude XXIII in B Major, BWV 892 (Version A)
DR11 -6.83 dB -21.11 dB 2:09 46-Fugue XXIII à 4 in B Major, BWV 892
DR12 -7.73 dB -21.82 dB 2:16 47-Prelude XXIV in B Minor, BWV 893 (Version A)
DR12 -6.43 dB -20.49 dB 1:49 48-Fugue XXIV à 3 in B Minor, BWV 893
––––––––––––––––––––––––––––––––––––––––

Number of tracks: 48
Official DR value: DR12

Samplerate: 96000 Hz
Channels: 2
Bits per sample: 24
Bitrate: 2433 kbps
Codec: FLAC
================================================================================



Thanks to the Original customer.