Tags
Language
Tags
June 2024
Su Mo Tu We Th Fr Sa
26 27 28 29 30 31 1
2 3 4 5 6 7 8
9 10 11 12 13 14 15
16 17 18 19 20 21 22
23 24 25 26 27 28 29
30 1 2 3 4 5 6

M.C. Hammer - Too Legit To Quit (1991/2021) [Official Digital Download 24/192]

Posted By: pyatak
M.C. Hammer - Too Legit To Quit (1991/2021) [Official Digital Download 24/192]

M.C. Hammer - Too Legit To Quit (1991/2021) [Official Digital Download 24/192]
FLAC (tracks) 24-bit/192 kHz | Front Cover | Time - 70:50 minutes | 2,72 GB
Rap | Studio Master, Official Digital Download

Too Legit to Quit is the fourth studio album by Hammer, released on October 29, 1991 by Capitol Records and EMI Records. The album, also produced by Felton Pilate, has been certified silver in the UK by the BPI and triple platinum in the US by the RIAA. The album managed to sell more than 5 million copies.

The marketing campaign for Too Legit To Quit was the largest in the history of Capitol Records at the time, as the label invested $1 million in advertising and the multimillion dollar music video for the title track remains one of the most expensive ever made.

TRACKLIST

1. M.C. Hammer - This Is The Way We Roll
2. M.C. Hammer - Brothers Hang On
3. M.C. Hammer - 2 Legit 2 Quit
4. M.C. Hammer - Living In A World Like This
5. M.C. Hammer - Tell Me
6. M.C. Hammer - Releasing Some Pressure
7. M.C. Hammer - Find Yourself A Friend
8. M.C. Hammer - Count It Off
9. M.C. Hammer - Good To Go
10. Felton Pilate II - Lovehold
11. M.C. Hammer - Street Soldiers
12. M.C. Hammer - Do Not Pass Me By
13. M.C. Hammer - Gaining Momentum

foobar2000 1.6.2 / Dynamic Range Meter 1.1.1
log date: 2021-09-21 17:02:57

––––––––––––––––––––––––––––––––––––––––
Analyzed: Felton Pilate II / Too Legit To Quit (1)
M.C. Hammer / Too Legit To Quit (2-13)
––––––––––––––––––––––––––––––––––––––––

DR Peak RMS Duration Track
––––––––––––––––––––––––––––––––––––––––
DR10 -0.34 dB -11.63 dB 4:54 10-Lovehold
DR10 -0.34 dB -11.09 dB 5:53 01-This Is The Way We Roll
DR10 -0.34 dB -10.86 dB 7:12 02-Brothers Hang On
DR8 -0.34 dB -9.54 dB 5:33 03-2 Legit 2 Quit
DR10 -0.34 dB -11.28 dB 5:29 04-Living In A World Like This
DR9 -0.34 dB -10.63 dB 6:38 05-Tell Me
DR9 -0.34 dB -10.89 dB 5:04 06-Releasing Some Pressure
DR9 -0.34 dB -10.52 dB 3:57 07-Find Yourself A Friend
DR10 -0.34 dB -10.96 dB 5:06 08-Count It Off
DR9 -0.34 dB -10.85 dB 4:54 09-Good To Go
DR11 -0.34 dB -13.05 dB 5:00 11-Street Soldiers
DR9 -0.34 dB -10.74 dB 5:31 12-Do Not Pass Me By
DR9 -0.34 dB -9.94 dB 5:40 13-Gaining Momentum
––––––––––––––––––––––––––––––––––––––––

Number of tracks: 13
Official DR value: DR9

Samplerate: 192000 Hz
Channels: 2
Bits per sample: 24
Bitrate: 5512 kbps
Codec: FLAC
================================================================================



Thanks to the Original customer.