Tags
Language
Tags

Mario Aschauer - Keyboard Music from Codex Vienna, Minorite Convent, 714 (2022) [Official Digital Download 24/96]

Posted By: pyatak
Mario Aschauer - Keyboard Music from Codex Vienna, Minorite Convent, 714 (2022) [Official Digital Download 24/96]

Mario Aschauer - Keyboard Music from Codex Vienna, Minorite Convent, 714 (2022) [Official Digital Download 24/96]
FLAC (tracks) 24-bit/96 kHz | Front Cover | Time - 66:16 minutes | 1,42 GB
Classical | Studio Master, Official Digital Download

Praised a performer with “unconventional ludic drive” by the press and listed among Austria's thirty-five most outstanding researchers aged under thirty-five by the Austrian Science Fund in 2013, Mario Aschauer works as conductor, harpsichordist, and musicologist at the interface of music scholarship and performance.

His book on German Keyboard Treatises in the Second Half of the Eighteenth Century (Kassel: Bärenreiter, 2011) is considered a standard reference in the field. Further projects in early keyboard studies include the development of historical-style keyboard fingerings and notes on performance practice for new editions of prominent works by Beethoven and Schubert as well as a new edition of Mozart's keyboard sonatas published by Bärenreiter.

As a performer on historical keyboard instruments Mario has built up a diverse repertoire specializing in Austrian Baroque music. He is member of the Calamus-Consort, which won first prize at the International H.I.F. Biber Competetion in 2009 and since then has been invited to numerous renowned early music festivals such as Resonanzen Wien, Bach Fest Leipzig (Germany), and Itinéraire Baroque en Périgord Vert (France). Their CD “Un dolce affanno” (Passacaille, 2012) features highlights from operas performed at the Vienna court around 1700 with chalumeau, clarinet, and harpsichord as solo instruments.

TRACKLIST

1. Mario Aschauer - Conzon à 6 in G Minor 1 (fol. 46v–47r)
2. Mario Aschauer - Ahi Chi Mi Romp’ Il Sonno à 5 (189v–190r)
3. Mario Aschauer - Conzon (77v–78r)
4. Mario Aschauer - Fantasia Ottava Sopra Tre Soggetti (97v–99r)
5. Mario Aschauer - Liquide Perle Amor (211v–212r)
6. Mario Aschauer - Toccata Primi Toni (87v–89r)
7. Mario Aschauer - Conzon à 6 (69v–70r)
8. Mario Aschauer - Sine Titulo (210v–211r)
9. Mario Aschauer - Nasce La Pena Mia (fol. 89v–90v)
10. Mario Aschauer - Conzon (188v–189r)
11. Mario Aschauer - Benedicam Dominum in Omni Tempore à 5 (208v–210r)
12. Mario Aschauer - Conzon à 6 in G Minor 2 (46v–47r)
13. Mario Aschauer - Toccata quinti toni in C Major, SwWV 284 (54v–55r)
14. Mario Aschauer - Ballet (61v–62r)
15. Mario Aschauer - Gott Sei Gelobet Und Gebenedeiet (228v–229r)

foobar2000 1.6.2 / Dynamic Range Meter 1.1.1
log date: 2022-06-29 16:15:10

––––––––––––––––––––––––––––––––––––––––
Analyzed: Mario Aschauer / Keyboard Music from Codex Vienna, Minorite Convent, 714
––––––––––––––––––––––––––––––––––––––––

DR Peak RMS Duration Track
––––––––––––––––––––––––––––––––––––––––
DR13 -7.36 dB -22.73 dB 2:40 01-Conzon à 6 in G Minor 1 (fol. 46v–47r)
DR9 -3.44 dB -15.99 dB 3:32 02-Ahi Chi Mi Romp’ Il Sonno à 5 (189v–190r)
DR13 -9.22 dB -25.53 dB 4:07 03-Conzon (77v–78r)
DR10 -2.47 dB -14.07 dB 5:42 04-Fantasia Ottava Sopra Tre Soggetti (97v–99r)
DR10 -1.51 dB -13.87 dB 2:13 05-Liquide Perle Amor (211v–212r)
DR13 -10.28 dB -25.14 dB 7:36 06-Toccata Primi Toni (87v–89r)
DR10 -0.50 dB -13.36 dB 4:27 07-Conzon à 6 (69v–70r)
DR10 -5.27 dB -18.80 dB 2:23 08-Sine Titulo (210v–211r)
DR12 -8.21 dB -22.38 dB 5:13 09-Nasce La Pena Mia (fol. 89v–90v)
DR12 -7.18 dB -23.74 dB 4:16 10-Conzon (188v–189r)
DR13 -9.37 dB -25.04 dB 9:39 11-Benedicam Dominum in Omni Tempore à 5 (208v–210r)
DR10 -0.91 dB -13.80 dB 5:12 12-Conzon à 6 in G Minor 2 (46v–47r)
DR12 -11.55 dB -26.49 dB 2:07 13-Toccata quinti toni in C Major, SwWV 284 (54v–55r)
DR12 -7.53 dB -22.53 dB 1:42 14-Ballet (61v–62r)
DR10 -1.70 dB -14.30 dB 5:28 15-Gott Sei Gelobet Und Gebenedeiet (228v–229r)
––––––––––––––––––––––––––––––––––––––––

Number of tracks: 15
Official DR value: DR11

Samplerate: 96000 Hz
Channels: 2
Bits per sample: 24
Bitrate: 2927 kbps
Codec: FLAC
================================================================================



Thanks to the Original customer.