Tags
Language
Tags

Maysa - Franquesa (2020) [Official Digital Download]

Posted By: pyatak
Maysa - Franquesa (2020) [Official Digital Download]

Maysa - Franquesa (2020) [Official Digital Download]
FLAC (tracks) 24-bit/44.1 kHz | Front Cover | Time - 91:04 minutes | 973 MB
Bossa Nova, Latin Jazz | Studio Master, Official Digital Download

Maysa Figueira Monjardim (June 6, 1936 – January 22, 1977), better known as Maysa Matarazzo, was a Brazilian singer, composer, and actress. She is also associated with Bossa nova music but is widely known as a torch song (fossa) interpreter.

TRACKLIST

1. Maysa - Franquesa
2. Maysa - Raízes
3. Maysa - Um Novo Ceu
4. Maysa - Sonata Sem Luar
5. Maysa - Se Todos Fossem Iguais a Você
6. Maysa - Rindo de Mim
7. Maysa - Ternura Perdida
8. Maysa - Besame Mucho
9. Maysa - Chorou, Chorou
10. Maysa - A Canção dos Seus Olhos
11. Maysa - Agonia
12. Maysa - Ouça
13. Maysa - Quem Quiser Encontrar Amor
14. Maysa - Segredo
15. Maysa - Un Jour Tu Verras
16. Maysa - Não Vou Querer
17. Maysa - Marcada
18. Maysa - Estou para Dizer Adeus
19. Maysa - Chora Tua Tristeza
20. Maysa - Adeus
21. Maysa - Escuta Noel
22. Maysa - Diplomacia
23. Maysa - O Menino Desce o Morro
24. Maysa - Noite Chuvosa
25. Maysa - Resposta
26. Maysa - O Amor e a Rosa
27. Maysa - Chão de Estrelas
28. Maysa - I Love Paris
29. Maysa - To The End Of The Earth
30. Maysa - Samba Triste

foobar2000 1.3.16 / Dynamic Range Meter 1.1.1
log date: 2020-08-03 20:01:46

––––––––––––––––––––––––––––––––––––––––
Analyzed: Maysa / Franquesa
––––––––––––––––––––––––––––––––––––––––

DR Peak RMS Duration Track
––––––––––––––––––––––––––––––––––––––––
DR9 -0.30 dB -11.08 dB 3:27 01-Franquesa
DR10 -2.78 dB -15.59 dB 3:18 02-Raízes
DR10 -0.26 dB -13.14 dB 3:02 03-Um Novo Ceu
DR10 -0.26 dB -13.76 dB 2:38 04-Sonata Sem Luar
DR8 -0.30 dB -10.42 dB 3:16 05-Se Todos Fossem Iguais a Você
DR8 -0.26 dB -10.06 dB 3:09 06-Rindo de Mim
DR10 -0.26 dB -13.05 dB 2:43 07-Ternura Perdida
DR9 -2.06 dB -14.00 dB 2:42 08-Besame Mucho
DR8 -2.06 dB -11.74 dB 3:06 09-Chorou, Chorou
DR10 -0.26 dB -12.20 dB 2:36 10-A Canção dos Seus Olhos
DR8 -0.26 dB -9.18 dB 2:33 11-Agonia
DR10 -0.30 dB -12.98 dB 3:01 12-Ouça
DR7 -2.06 dB -10.39 dB 2:26 13-Quem Quiser Encontrar Amor
DR7 -0.30 dB -8.69 dB 3:16 14-Segredo
DR6 -0.30 dB -9.48 dB 4:08 15-Un Jour Tu Verras
DR8 -0.26 dB -10.24 dB 2:57 16-Não Vou Querer
DR7 -0.26 dB -9.39 dB 3:17 17-Marcada
DR9 -2.06 dB -14.14 dB 3:40 18-Estou para Dizer Adeus
DR9 -0.26 dB -11.63 dB 2:40 19-Chora Tua Tristeza
DR7 -0.26 dB -8.79 dB 3:07 20-Adeus
DR9 -0.30 dB -10.89 dB 2:55 21-Escuta Noel
DR9 -0.26 dB -11.92 dB 3:23 22-Diplomacia
DR10 -0.26 dB -11.98 dB 2:49 23-O Menino Desce o Morro
DR10 -0.26 dB -12.73 dB 3:18 24-Noite Chuvosa
DR7 -0.26 dB -9.87 dB 3:19 25-Resposta
DR9 -0.26 dB -11.45 dB 3:06 26-O Amor e a Rosa
DR9 -2.06 dB -14.83 dB 3:29 27-Chão de Estrelas
DR10 -2.17 dB -14.90 dB 2:55 28-I Love Paris
DR7 -0.30 dB -9.85 dB 2:21 29-To The End Of The Earth
DR8 -0.26 dB -10.54 dB 2:31 30-Samba Triste
––––––––––––––––––––––––––––––––––––––––

Number of tracks: 30
Official DR value: DR9

Samplerate: 44100 Hz
Channels: 2
Bits per sample: 24
Bitrate: 1496 kbps
Codec: FLAC
================================================================================



Thanks to the Original customer.