Tags
Language
Tags

Michael Spyres - Baritenor (2021) [Official Digital Download 24/96]

Posted By: pyatak
Michael Spyres - Baritenor (2021) [Official Digital Download 24/96]

Michael Spyres - Baritenor (2021) [Official Digital Download 24/96]
FLAC (tracks) 24-bit/96 kHz | Front Cover | Time - 84:30 minutes | 1,47 GB
Classical | Label: Warner Classics, Official Digital Download

Generally classified into five practical categories: soprano, alto, tenor, baritone and bass, the characterization of the various vocal typologies is actually subtler and more complicated than that. The baritone voice, for example, serves according to repertoires as an intermediary between the bass and the tenor, but there was also that of bariténor (baritone-Martin in France) as illustrated by this very pleasant recording of the American singer Michael Spyres, a real vocal phenomenon.

TRACKLIST

01. Michael Spyres - Idomeneo, K. 366, Act II: "Fuor del mar" (Idomeneo)
02. Michael Spyres - Le nozze di Figaro, K. 492, Act III: "Hai gia vinto la causa?" (Il Conte d'Almaviva)
03. Michael Spyres - Don Giovanni, K. 527, Act II: "Deh, vieni al la finestra" (Don Giovanni)
04. Michael Spyres - Ariodant, Act III: "Oh, Dieux! Ecoutez ma prière" (Edgard)
05. Michael Spyres - La Vestale, Act III: "Qu’ai-je vu! Quels apprêts" (Licinius)
06. Michael Spyres - Il Barbiere di Siviglia, Act I: "Largo al factotum" (Figaro)
07. Michael Spyres - Otello, Act I: "Ah si, per voi già sento" - "Premio maggior di questo" - "Amor, dirada il nembo" (Otello, Iago, Chorus)
08. Michael Spyres - Le Postillon de Lonjumeau, Act I: "Mes amis, écoutez l'histoire" (Chapelou, Chorus)
09. Michael Spyres - La fille du régiment, Act I: "Ah! Mes amis, quel jour de fête!" - "Pour mon âme" (Tonio, Chorus)
10. Michael Spyres - Il trovatore, Act II: "Tutto è deserto" - "Il balen del suo sorriso" (Il Conte di Luna)
11. Michael Spyres - Hamlet, Act II: "C'est en croyant revoir" - "Oh, vin! Dissipe la tristesse" (Hamlet, Marcellus, Horatio, Chorus)
12. Michael Spyres - Les Contes d'Hoffmann, Act I: "Va! pour Kleinzach" (Hoffmann, Nathanaël, Chorus)
13. Michael Spyres - Lohengrin, Act III: "Aux bords lointains" (Lohengrin)
14. Michael Spyres - Pagliacci, Prologue: "Si può? Signore! Signori!" (Tonio)
15. Michael Spyres - Die lustige Witwe, Act I: "O Vaterland du machst bei Tag" - "Da geh ich zu Maxim" (Danilo)
16. Michael Spyres - L'heure espagnole, M. 52: "Voilà, ce que j'appelle une femme charmante" (Ramiro)
17. Michael Spyres - Carmina Burana, Pt. 4 “Cour d'amours”: Dies nox et omnia
18. Michael Spyres - Die tote Stadt, Op. 12, Act I: Lied. "Glück, das mir verblieb" (Marietta)

foobar2000 1.6.2 / Dynamic Range Meter 1.1.1
log date: 2021-09-25 11:17:07

––––––––––––––––––––––––––––––––––––––––
Analyzed: Michael Spyres / Baritenor
––––––––––––––––––––––––––––––––––––––––

DR Peak RMS Duration Track
––––––––––––––––––––––––––––––––––––––––
DR13 -5.33 dB -21.48 dB 6:00 01-Idomeneo, K. 366, Act II: "Fuor del mar" (Idomeneo)
DR13 -2.02 dB -20.64 dB 4:59 02-Le nozze di Figaro, K. 492, Act III: "Hai gia vinto la causa?" (Il Conte d'Almaviva)
DR13 -8.33 dB -27.46 dB 1:59 03-Don Giovanni, K. 527, Act II: "Deh, vieni al la finestra" (Don Giovanni)
DR13 -1.79 dB -19.85 dB 4:21 04-Ariodant, Act III: "Oh, Dieux! Ecoutez ma prière" (Edgard)
DR12 -0.50 dB -16.17 dB 3:14 05-La Vestale, Act III: "Qu’ai-je vu! Quels apprêts" (Licinius)
DR14 -0.50 dB -18.94 dB 5:13 06-Il Barbiere di Siviglia, Act I: "Largo al factotum" (Figaro)
DR14 -0.49 dB -19.06 dB 6:58 07-Otello, Act I: "Ah si, per voi già sento" - "Premio maggior di questo" - "Amor, dirada il nembo" (Otello, Iago, Chorus)
DR15 -0.43 dB -20.59 dB 4:59 08-Le Postillon de Lonjumeau, Act I: "Mes amis, écoutez l'histoire" (Chapelou, Chorus)
DR14 -0.98 dB -18.96 dB 4:22 09-La fille du régiment, Act I: "Ah! Mes amis, quel jour de fête!" - "Pour mon âme" (Tonio, Chorus)
DR12 -3.63 dB -21.36 dB 4:38 10-Il trovatore, Act II: "Tutto è deserto" - "Il balen del suo sorriso" (Il Conte di Luna)
DR12 -0.49 dB -18.04 dB 5:55 11-Hamlet, Act II: "C'est en croyant revoir" - "Oh, vin! Dissipe la tristesse" (Hamlet, Marcellus, Horatio, Chorus)
DR14 -0.50 dB -19.89 dB 5:24 12-Les Contes d'Hoffmann, Act I: "Va! pour Kleinzach" (Hoffmann, Nathanaël, Chorus)
DR14 -0.50 dB -19.96 dB 6:14 13-Lohengrin, Act III: "Aux bords lointains" (Lohengrin)
DR13 -0.48 dB -18.06 dB 5:44 14-Pagliacci, Prologue: "Si può? Signore! Signori!" (Tonio)
DR14 -0.51 dB -20.05 dB 2:45 15-Die lustige Witwe, Act I: "O Vaterland du machst bei Tag" - "Da geh ich zu Maxim" (Danilo)
DR14 -10.02 dB -30.26 dB 2:28 16-L'heure espagnole, M. 52: "Voilà, ce que j'appelle une femme charmante" (Ramiro)
DR15 -11.55 dB -31.67 dB 2:30 17-Carmina Burana, Pt. 4 “Cour d'amours”: Dies nox et omnia
DR12 -4.58 dB -23.50 dB 6:49 18-Die tote Stadt, Op. 12, Act I: Lied. "Glück, das mir verblieb" (Marietta)
––––––––––––––––––––––––––––––––––––––––

Number of tracks: 18
Official DR value: DR13

Samplerate: 96000 Hz
Channels: 2
Bits per sample: 24
Bitrate: 2400 kbps
Codec: FLAC
================================================================================



Thanks to the Original customer.