Tags
Language
Tags
May 2024
Su Mo Tu We Th Fr Sa
28 29 30 1 2 3 4
5 6 7 8 9 10 11
12 13 14 15 16 17 18
19 20 21 22 23 24 25
26 27 28 29 30 31 1

Musta Leskinen - Kasaanroiskitut (2023) [Official Digital Download]

Posted By: pyatak
Musta Leskinen - Kasaanroiskitut (2023) [Official Digital Download]

Musta Leskinen - Kasaanroiskitut (2023) [Official Digital Download]
FLAC (tracks) 24-bit/44.1 kHz | Front Cover | Time - 42:52 minutes | 462 MB
Blues | Studio Master, Official Digital Download

Debut album of Musta Leskinen. A pile of instrumental swinging rock with trace amounts of Hendrix and ZZ Top.

TRACKLIST

1. Musta Leskinen - Jytähirven viimeinen matka
2. Musta Leskinen - Hiekkatie-boogie
3. Musta Leskinen - Iltapäivän viimeinen kokous
4. Musta Leskinen - Nöyränä suu mutrussa
5. Musta Leskinen - Päiväjäisliskot
6. Musta Leskinen - Kaikki koirat pääsee taivaaseen
7. Musta Leskinen - Liian malttamaton bluesiin
8. Musta Leskinen - Markalla sekalaisia
9. Musta Leskinen - Matka jatkuu

foobar2000 1.6.2 / Dynamic Range Meter 1.1.1
log date: 2023-07-10 20:38:06

––––––––––––––––––––––––––––––––––––––––
Analyzed: Musta Leskinen / Kasaanroiskitut
––––––––––––––––––––––––––––––––––––––––

DR Peak RMS Duration Track
––––––––––––––––––––––––––––––––––––––––
DR12 -0.10 dB -13.05 dB 4:09 01-Jytähirven viimeinen matka
DR12 -0.10 dB -13.53 dB 4:24 02-Hiekkatie-boogie
DR12 -0.10 dB -13.63 dB 4:32 03-Iltapäivän viimeinen kokous
DR12 -0.10 dB -13.57 dB 4:06 04-Nöyränä suu mutrussa
DR11 -0.10 dB -13.40 dB 5:58 05-Päiväjäisliskot
DR13 -0.10 dB -14.60 dB 3:56 06-Kaikki koirat pääsee taivaaseen
DR12 -0.10 dB -13.45 dB 5:26 07-Liian malttamaton bluesiin
DR13 -0.10 dB -14.53 dB 5:08 08-Markalla sekalaisia
DR11 -0.10 dB -12.36 dB 5:14 09-Matka jatkuu
––––––––––––––––––––––––––––––––––––––––

Number of tracks: 9
Official DR value: DR12

Samplerate: 44100 Hz
Channels: 2
Bits per sample: 24
Bitrate: 1444 kbps
Codec: FLAC
================================================================================



Thanks to the Original customer.