Tags
Language
Tags

Neil Young - Roxy - Tonight's The Night Live (2018) [Official Digital Download 24/192]

Posted By: pyatak
Neil Young - Roxy - Tonight's The Night Live (2018) [Official Digital Download 24/192]

Neil Young - Roxy - Tonight's The Night Live (2018) [Official Digital Download 24/192]
FLAC (tracks) 24-bit/192 kHz | Front Cover | Time - 53:02 minutes | 1,9 GB
Rock | Studio Master, Official Digital Download

Tonight’s The Night is one of the greatest dark albums in the history of rock’n’roll. Within six month, Neil Young lost two close friends to overdoses: his guitarist Danny Whitten and his roadie Bruce Berry. It explains why the album he recorded soon after, in August and September 1973 (which was only released in June 1975, after On The Beach), was so dark… The introspective trip of Tonight’s The Night feeds on these personal tragedies and blends them with the oppressive atmosphere that reigned in the US at the time. Urban violence, rampant drug use, Vietnam War and faltering hippie utopia all contributed to his sombre yet sublime and poignant partition. Even the instrumentation of Tonight’s The Night is wavering between a flickering piano and a thrifty pedal steel guitar. A stripped-bare style to better highlight the beauty of the melodies on moving ballads like Tired Eyes, New Mama and Borrowed Tune…

On September 20th, 21st and 22nd of 1973, Neil Young and his musicians, baptised the Santa Monica Flyers (with Ben Keith on the pedal steel guitar, Nils Lofgren on the guitar and piano, Billy Talbot on the bass and Ralph Molina on drums), stepped onto the stage of Roxy, a brand-new club in West Hollywood, Los Angeles. In their hands, this new repertoire that stunk of death and sulphur, but the versions they delivered to the Californian public were bursting with true emotional power, real warmth and, at times, a sincere and communicative joy that was – logically – absent from the studio versions. That’s the true magic of this unearthed and restored archive. And while Neil Young’s fans will no doubt have this Roxy − Tonight’s The Night Live on repeat, newcomers can also jump on this stunning bandwagon and discover the universe of a unique musician who was, at the time, on top of his game and writing.

TRACKLIST

1. Neil Young - Intro (Live from The Roxy)
2. Neil Young - Tonight's the Night (Live from The Roxy)
3. Neil Young - Roll Out the Barrel (Live from The Roxy)
4. Neil Young - Mellow My Mind (Live from The Roxy)
5. Neil Young - World on a String (Live from The Roxy)
6. Neil Young - Band Intro (Live from The Roxy)
7. Neil Young - Speakin' Out (Live from The Roxy)
8. Neil Young - Candy Barr Rap (Live from The Roxy)
9. Neil Young - Albuquerque (Live from The Roxy)
10. Neil Young - Perry Como Rap (Live from The Roxy)
11. Neil Young - New Mama (Live from The Roxy)
12. Neil Young - David Geffen Rap (Live from The Roxy)
13. Neil Young - Roll Another Number (For the Road) (Live from The Roxy)
14. Neil Young - Candy Barr 2 Rap (Live from The Roxy)
15. Neil Young - Tired Eyes (Live from The Roxy)
16. Neil Young - Tonight's the Night, Pt. II (Live from The Roxy)
17. Neil Young - Walk On (Live from The Roxy)
18. Neil Young - Outro (Live from The Roxy)

foobar2000 1.6.2 / Dynamic Range Meter 1.1.1
log date: 2021-10-11 21:02:02

––––––––––––––––––––––––––––––––––––––––
Analyzed: Neil Young / Roxy: Tonight's The Night Live
––––––––––––––––––––––––––––––––––––––––

DR Peak RMS Duration Track
––––––––––––––––––––––––––––––––––––––––
DR14 -3.42 dB -21.93 dB 0:43 01-Intro (Live from The Roxy)
DR12 -0.61 dB -16.70 dB 6:56 02-Tonight's the Night (Live from The Roxy)
DR11 -2.58 dB -19.63 dB 0:52 03-Roll Out the Barrel (Live from The Roxy)
DR11 -2.14 dB -15.56 dB 3:11 04-Mellow My Mind (Live from The Roxy)
DR11 -1.69 dB -15.55 dB 2:43 05-World on a String (Live from The Roxy)
DR15 -4.07 dB -25.13 dB 1:23 06-Band Intro (Live from The Roxy)
DR12 -0.53 dB -15.81 dB 6:37 07-Speakin' Out (Live from The Roxy)
DR12 -10.52 dB -29.61 dB 0:31 08-Candy Barr Rap (Live from The Roxy)
DR12 -1.91 dB -16.66 dB 3:51 09-Albuquerque (Live from The Roxy)
DR8 -8.75 dB -29.64 dB 0:17 10-Perry Como Rap (Live from The Roxy)
DR16 -1.17 dB -19.63 dB 2:29 11-New Mama (Live from The Roxy)
DR12 -15.25 dB -32.18 dB 0:36 12-David Geffen Rap (Live from The Roxy)
DR12 -1.27 dB -16.40 dB 4:48 13-Roll Another Number (For the Road) (Live from The Roxy)
DR10 -9.44 dB -27.50 dB 0:20 14-Candy Barr 2 Rap (Live from The Roxy)
DR13 0.00 dB -17.97 dB 7:03 15-Tired Eyes (Live from The Roxy)
DR12 -0.35 dB -16.37 dB 6:38 16-Tonight's the Night, Pt. II (Live from The Roxy)
DR11 0.00 dB -13.58 dB 3:38 17-Walk On (Live from The Roxy)
DR15 -6.76 dB -30.63 dB 0:34 18-Outro (Live from The Roxy)
––––––––––––––––––––––––––––––––––––––––

Number of tracks: 18
Official DR value: DR12

Samplerate: 192000 Hz
Channels: 2
Bits per sample: 24
Bitrate: 4711 kbps
Codec: FLAC
================================================================================



Thanks to the Original customer.