Tags
Language
Tags

Neil Young - Young Shakespeare (Live) (2021) [Official Digital Download 24/192]

Posted By: pyatak
Neil Young - Young Shakespeare (Live) (2021) [Official Digital Download 24/192]

Neil Young - Young Shakespeare (Live) (2021) [Official Digital Download 24/192]
FLAC (tracks) 24-bit/192 kHz | Front Cover | Time - 50:25 minutes | 1,7 GB
Rock | Label: Studio Master, Official Digital Download

Young Shakespeare is a live album and concert film from American-Canadian folk rock musician Neil Young recorded in 1971, and released on March 26, 2021. Recorded three days after Live at Massey Hall 1971, during the Journey Through the Past Solo Tour.

TRACKLIST

1. Neil Young - Tell Me Why (Live)
2. Neil Young - Old Man (Live)
3. Neil Young - The Needle and the Damage Done (Live)
4. Neil Young - Ohio (Live)
5. Neil Young - Dance Dance Dance (Live)
6. Neil Young - Cowgirl in the Sand (Live)
7. Neil Young - A Man Needs a Maid/Heart of Gold (Medley) (Live)
8. Neil Young - Journey Through the Past (Live)
9. Neil Young - Don't Let it Bring You Down (Live)
10. Neil Young - Helpless (Live)
11. Neil Young - Down by the River (Live)
12. Neil Young - Sugar Mountain (Live)

foobar2000 1.6.2 / Dynamic Range Meter 1.1.1
log date: 2021-03-26 00:41:13

––––––––––––––––––––––––––––––––––––––––
Analyzed: Neil Young / Young Shakespeare (Live)
––––––––––––––––––––––––––––––––––––––––

DR Peak RMS Duration Track
––––––––––––––––––––––––––––––––––––––––
DR12 -1.07 dB -16.93 dB 2:37 01-Tell Me Why (Live)
DR11 -0.25 dB -16.23 dB 4:09 02-Old Man (Live)
DR12 -3.97 dB -19.85 dB 3:47 03-The Needle and the Damage Done (Live)
DR11 -0.89 dB -15.70 dB 3:02 04-Ohio (Live)
DR11 -2.05 dB -16.90 dB 2:26 05-Dance Dance Dance (Live)
DR12 -0.55 dB -16.06 dB 4:21 06-Cowgirl in the Sand (Live)
DR11 -1.09 dB -15.67 dB 3:34 08-Journey Through the Past (Live)
DR12 -0.62 dB -15.54 dB 2:57 09-Don't Let it Bring You Down (Live)
DR12 -2.66 dB -17.93 dB 3:49 10-Helpless (Live)
DR13 -0.45 dB -17.45 dB 4:12 11-Down by the River (Live)
DR11 -2.60 dB -18.21 dB 8:40 12-Sugar Mountain (Live)
––––––––––––––––––––––––––––––––––––––––

Number of tracks: 11
Official DR value: DR12

Samplerate: 192000 Hz
Channels: 2
Bits per sample: 24
Bitrate: 4707 kbps
Codec: FLAC
================================================================================

foobar2000 1.6.2 / Dynamic Range Meter 1.1.1
log date: 2021-03-26 00:40:19

––––––––––––––––––––––––––––––––––––––––
Statistics for: 07-A Man Needs a Maid/Heart of Gold (Medley) (Live)
Number of samples: 18324300
Duration: 6:56
––––––––––––––––––––––––––––––––––––––––

Left Right

Peak Value: -0.53 dB –- -0.50 dB
Avg RMS: -16.12 dB –- -16.45 dB
DR channel: 11.43 dB –- 11.79 dB
––––––––––––––––––––––––––––––––––––––––

Official DR Value: DR12

Samplerate: 44100 Hz
Channels: 2
Bits per sample: 24
Bitrate: 1379 kbps
Codec: FLAC
================================================================================


Thanks to the Original customer.