Tags
Language
Tags

Olga Kopylova - Morning Star (2021) [Official Digital Download]

Posted By: pyatak
Olga Kopylova - Morning Star (2021) [Official Digital Download]

Olga Kopylova - Morning Star (2021) [Official Digital Download]
FLAC (tracks) 24-bit/48 kHz | Front Cover | Time - 46:39 minutes | 412 MB
Classical | Label: Azul Music, Official Digital Download

Pops Performing Arts & Cultural Center is very pleased to be hosting Olga Kopylova the principle pianist Sao Paulo Symphonic Orchestra. She will be performing a Promenade through the History of Classical Music.

Born in 1979 in Uzbequistan, in the former Soviet Union, Olga Kopylova began her piano studies at the age of four with her father, and at six she was admitted in the Uspensky Special Music School in Tashkent. In Moscow, Olga studied at the Tchaikovsky Music College and then at the Tchaikovsky Conservatory, taking classes from the renowned teachers Tatiana Galitzkaya and Liudmila Roshina, both of them representative of the piano school of Samuil Feinberg.

She moved to Brazil in 2000 to take the lead pianist position at the Orquestra Sinfônica do Estado de São Paulo – OSESP, where she holds that role until the present day.
In 2002 Olga recorded the solo CD album “Estrela da Manhã” (“Morning Star”), featuring music from Russian composers. As a member of Osesp, she took part in many symphonic recordings, including the awarded CD with the Jolivet Concerts for trumpet and orchestra, featuring Ole Edvard Antonsen.

As a soloist, Olga has been performing along with several Brazilian and international orchestras, under the baton of John Neschling, Roberto Minczuk, Giancarlo Guerrero, and Scott Seaton, among others.

Olga plays in chamber music presentations which are part of OSESP’s chamber music
series, as well as together with international soloists like Johannes Moser, Nicolas Koeckert, Alexander Chaushian, and Ransom Wilson, inaddition to keeping stable formations as the Vesper Tri and DKopylova & Rakevich.She also engages insocial and educational activities aiming to foster the development of new audiences for classical music.

TRACKLIST

1. Olga Kopylova - Fairy Tale in E-Flat Major, Op. 26, No. 1: Allegro Freascamente
2. Olga Kopylova - Fairy Tale in E-Flat Major, Op. 26, No. 2: Molto Vivace
3. Olga Kopylova - Fairy Tale in F Minor, Op. 26, No. 3: Narrante a Piacere
4. Olga Kopylova - Fairy Tale in F-Sharp Minor, Op. 26, No. 4: Sostenuto
5. Olga Kopylova - Fairy Tale in C Minor, Op. 42, No. 2
6. Olga Kopylova - 12 Études, Op. 8: No. 4 in B Major
7. Olga Kopylova - 12 Études, Op. 8: No. 5 in E Major
8. Olga Kopylova - Études-tableaux, Op. 33: No. 6 in E-Flat Minor
9. Olga Kopylova - Études-tableaux, Op. 39: No. 2 in A Minor
10. Olga Kopylova - Études-tableaux, Op. 39: No. 3 in F-Sharp Minor
11. Olga Kopylova - Piano Sonata No. 7 in B-Flat Major, Op. 83: I. Allegro inquieto - Andantino
12. Olga Kopylova - Piano Sonata No. 7 in B-Flat Major, Op. 83: II. Andante caloroso
13. Olga Kopylova - Piano Sonata No. 7 in B-Flat Major, Op. 83: III. Precipitato

foobar2000 1.6.2 / Dynamic Range Meter 1.1.1
log date: 2021-06-19 14:36:22

––––––––––––––––––––––––––––––––––––––––
Analyzed: Olga Kopylova / Morning Star
––––––––––––––––––––––––––––––––––––––––

DR Peak RMS Duration Track
––––––––––––––––––––––––––––––––––––––––
DR14 -6.74 dB -26.60 dB 2:43 01-Fairy Tale in E-Flat Major, Op. 26, No. 1: Allegro Freascamente
DR14 -2.46 dB -20.57 dB 1:26 02-Fairy Tale in E-Flat Major, Op. 26, No. 2: Molto Vivace
DR13 -10.75 dB -28.54 dB 2:39 03-Fairy Tale in F Minor, Op. 26, No. 3: Narrante a Piacere
DR14 -2.94 dB -24.11 dB 3:50 04-Fairy Tale in F-Sharp Minor, Op. 26, No. 4: Sostenuto
DR14 -5.84 dB -27.03 dB 2:08 05-Fairy Tale in C Minor, Op. 42, No. 2
DR11 -12.05 dB -27.66 dB 1:54 06-12 Études, Op. 8: No. 4 in B Major
DR14 -2.66 dB -22.06 dB 3:05 07-12 Études, Op. 8: No. 5 in E Major
DR14 -3.22 dB -22.89 dB 1:40 08-Études-tableaux, Op. 33: No. 6 in E-Flat Minor
DR15 -1.47 dB -22.53 dB 6:22 09-Études-tableaux, Op. 39: No. 2 in A Minor
DR12 -4.76 dB -20.53 dB 2:56 10-Études-tableaux, Op. 39: No. 3 in F-Sharp Minor
DR15 -2.98 dB -24.34 dB 8:06 11-Piano Sonata No. 7 in B-Flat Major, Op. 83: I. Allegro inquieto - Andantino
DR17 -2.59 dB -26.67 dB 6:25 12-Piano Sonata No. 7 in B-Flat Major, Op. 83: II. Andante caloroso
DR12 -0.03 dB -19.57 dB 3:24 13-Piano Sonata No. 7 in B-Flat Major, Op. 83: III. Precipitato
––––––––––––––––––––––––––––––––––––––––

Number of tracks: 13
Official DR value: DR14

Samplerate: 48000 Hz
Channels: 2
Bits per sample: 24
Bitrate: 1334 kbps
Codec: FLAC
================================================================================



Thanks to the Original customer.