Tags
Language
Tags

Rundfunk Sinfonie-Orchester Leipzig & Herbert Kegel - Orff: Carmina Burana (Remastered) (2017) [24/96]

Posted By: SERTiL
Rundfunk Sinfonie-Orchester Leipzig & Herbert Kegel - Orff: Carmina Burana (Remastered) (2017) [24/96]

Rundfunk Sinfonie-Orchester Leipzig & Herbert Kegel - Orff: Carmina Burana (Remastered) (2017)
FLAC (tracks) 24-bit/96 kHz | Time - 57:40 minutes | 1.14 GB
Studio Master, Official Digital Download | Artwork: Front Cover

Der 1895 geborene Münchener Carl Orff gehört zu den faszinierendsten Erscheinungen des Musikschaffens im 20. Jahrhundert. Große Bekanntheit erlangte er durch seine „Carmina Burana“, einem Werk von fulminanter Ausstrahlungskraft. Neben diesem Werk vereint das Triptychon „Trionfi“ noch „Catulli Carmina“ und „Trionfo di Afrodite“, die in dieser Edition ebenfalls unter Herbert Kegels musikalischer Leitung zu erleben sind. „Die Kluge“ behandelt im Stile einer Märchenfabel und im Sinne eines Brecht‘schen Lehrstückes die Geschichte um einen König, einen Bauern und seiner klugen Tochter. Die Einspielung ist einer der wichtigsten im großen ETERNA-Katalog und hat bis heute klanglich und musikalisch Referenzstatus. Das Repertoire des Dirigenten Herbert Kegel war so breit und die von ihm dort gesetzten Schwerpunkte so ungewöhnlich, dass es kaum möglich ist, ihn „marketingtauglich“ zum Spezialisten für einen Komponisten oder eine bestimmte Epoche der Musikgeschichte zu apostrophieren – zu nahe läge die Formulierung „Spezialist für alles“, die zwar ironisch klingen mag, aber angemessen wie bei nur sehr wenigen Dirigenten wäre. Kegels Aufnahmeserie mit Werken von Carl Orff – Carmina Burana nahm er sogar zweimal für ETERNA auf – scheint nach dem heute allzu verbreiteten Schubladendenken z. B. schlecht zu seinem leidenschaftlichen Engagement für die Zweite Wiener Schule zu passen, als deren unermüdlicher Fürsprecher er in der DDR aktiv war, was im Katalog vom VEB Deutsche Schallplatten vielfältig dokumentiert ist – mit Ersteinspielungen natürlich. Herbert Kegels ästhetischer Horizont war buchstäblich grenzüberschreitend und kompromisslos weit. Die gleiche akribische Feinheit, die beispielsweise Weberns filigrane Texturen unter seiner Stabführung auszeichnet, gibt einem nicht selten als reißerisch-monumental erlebten „Schaustück“ wie Carmina Burana eine in diesem Maße selten erlebte Aura ritueller Strenge und Ernsthaftigkeit.

Tracklist:
1 Fortuna Imperatix Mundi: O Fortuna 02:34
2 Fortuna Imperatix Mundi: Fortune plango vulnera 02:42
3 I Primo vere: eris leta facies 03:21
4 I Primo vere: Omnia Sol temperat 01:48
5 I Primo vere: Ecce gratum 02:45
6 Uf dem anger: Tanz 01:34
7 Uf dem anger: Floret silva 02:51
8 Uf dem anger: Chramer, gip die varwe mir 03:15
9 Uf dem anger: Reie, Swaz hie gat umbe, Chume, chum geselle min, Swaz hie gat umbe 04:05
10 Uf dem anger: Were diu werlt alle min 00:53
11 II In taberna: Estuans interius 02:32
12 II In taberna: Olim lacus colueram 03:45
13 II In taberna: Ego sum abbas 01:29
14 II In taberna: In taberna quando sumus 02:57
15 III Cour d'amours: Amor volat undique 03:04
16 III Cour d'amours: Dies, nox et omnia 02:18
17 III Cour d'amours: Stetit puella 02:00
18 III Cour d'amours: Circa mea pectora 02:11
19 III Cour d'amours: Si puer cum puellula 01:02
20 III Cour d'amours: Vebi, veni, venias 01:00
21 III Cour d'amours: In trutina 02:18
22 III Cour d'amours: Tempus est iocundum 02:12
23 III Cour d'amours: Dulcissime 00:45
24 III Cour d'amours: Blanziflor et Helena: Ave formosissima 01:42
25 III Cour d'amours: Fortuna Imperatrix Mundi: O Fortuna 02:37

Personnel:
Celestina Casapietra, Sopran
Horst Hiestermann, Tenor
Karl-Heinz Stryczek, Bariton
Rundfunk-Sinfonie-Orchester Leipzig
Rundfunkchore Leipzig und Berlin, Dresdner Kapellknaben
Herbert Kegel, Dirigent

Digitally remastered

foobar2000 1.3.7 / Dynamic Range Meter 1.1.1
log date: 2019-05-08 11:58:35

––––––––––––––––––––––––––––––––––––––––
Analyzed: Rundfunk Sinfonie-Orchester Leipzig / Orff: Carmina Burana
––––––––––––––––––––––––––––––––––––––––

DR Peak RMS Duration Track
––––––––––––––––––––––––––––––––––––––––
DR10 -0.63 dB -16.18 dB 2:34 01-Fortuna Imperatix Mundi: O Fortuna
DR11 -3.28 dB -20.56 dB 2:42 02-Fortuna Imperatix Mundi: Fortune plango vulnera
DR19 -6.53 dB -30.38 dB 3:21 03-I Primo vere: eris leta facies
DR15 -6.36 dB -29.50 dB 1:48 04-I Primo vere: Omnia Sol temperat
DR11 -1.51 dB -18.72 dB 2:45 05-I Primo vere: Ecce gratum
DR11 -2.59 dB -17.68 dB 1:34 06-Uf dem anger: Tanz
DR15 -3.58 dB -25.47 dB 2:51 07-Uf dem anger: Floret silva
DR13 -12.12 dB -30.11 dB 3:15 08-Uf dem anger: Chramer, gip die varwe mir
DR12 -2.28 dB -21.19 dB 4:05 09-Uf dem anger: Reie, Swaz hie gat umbe, Chume, chum geselle min, Swaz hie gat umbe
DR11 -1.82 dB -15.14 dB 0:53 10-Uf dem anger: Were diu werlt alle min
DR12 -3.20 dB -18.93 dB 2:32 11-II In taberna: Estuans interius
DR13 -3.23 dB -21.96 dB 3:45 12-II In taberna: Olim lacus colueram
DR12 -2.22 dB -19.22 dB 1:29 13-II In taberna: Ego sum abbas
DR11 -2.48 dB -18.47 dB 2:57 14-II In taberna: In taberna quando sumus
DR12 -17.94 dB -33.79 dB 3:04 15-III Cour d'amours: Amor volat undique
DR11 -16.33 dB -33.61 dB 2:18 16-III Cour d'amours: Dies, nox et omnia
DR12 -8.41 dB -26.55 dB 2:00 17-III Cour d'amours: Stetit puella
DR12 -3.41 dB -20.07 dB 2:11 18-III Cour d'amours: Circa mea pectora
DR11 -3.10 dB -20.36 dB 1:02 19-III Cour d'amours: Si puer cum puellula
DR11 -1.08 dB -17.93 dB 1:00 20-III Cour d'amours: Vebi, veni, venias
DR13 -12.05 dB -29.48 dB 2:18 21-III Cour d'amours: In trutina
DR12 -2.24 dB -19.80 dB 2:12 22-III Cour d'amours: Tempus est iocundum
DR10 -11.90 dB -29.98 dB 0:45 23-III Cour d'amours: Dulcissime
DR10 -2.38 dB -14.48 dB 1:42 24-III Cour d'amours: Blanziflor et Helena: Ave formosissima
DR10 -2.20 dB -16.87 dB 2:37 25-III Cour d'amours: Fortuna Imperatrix Mundi: O Fortuna
––––––––––––––––––––––––––––––––––––––––

Number of tracks: 25
Official DR value: DR12

Samplerate: 96000 Hz
Channels: 2
Bits per sample: 24
Bitrate: 2879 kbps
Codec: FLAC
================================================================================


Thanks to the Original customer.