Tags
Language
Tags

Jean-Michel Jarre - Oxygene Trilogy (40th Anniversary Edition) (2016) 3LP/FLAC

Posted By: SERTiL
Jean-Michel Jarre - Oxygene Trilogy (40th Anniversary Edition) (2016)  3LP/FLAC

Jean-Michel Jarre - Oxygene Trilogy (40th Anniversary Edition)
Electronic, Ambient | Vinyl Rip | FLAC (image+.cue) 24-bit/192 kHz | 121:05 min | 4.61 GB | Covers
Label: Sony Music / Columbia | Tracks: 20 | Rls.date: 2016

40 years after the huge international impact of OXYGENE, and 20 years from its second volume OXYGENE 7-13, Jean-Michel Jarre is fulfilling a trilogy of albums with OXYGENE 3, containing seven newly composed and recorded pieces, consistently titled parts 14-20. His inspiration for the newly added parts on OXYGENE 3 was not to go back in time, but to add a sense of “now” to his iconic piece of work. Plunging into the environment of OXYGENE with its highly original dark, moody and at times quite upbeat musical language, Jarre references some of the music from his entire body of work on OXYGENE 3. It’s a state-of-the-art recording, embracing both classic and modern ways of music production.

Jean-Michel Jarre - Oxygene Trilogy (40th Anniversary Edition) (2016)  3LP/FLAC


Tracklist: Oxygene (1976)
A1. Oxygene (Part 1) (7:39)
A2. Oxygene (Part 2) (7:47)
A4. Oxygene (Part 3) (3:15)
B1. Oxygene (Part 4) (4:06)
B2. Oxygene (Part 5) (10:14)
B3. Oxygene (Part 6) (6:37)

Jean-Michel Jarre - Oxygene Trilogy (40th Anniversary Edition) (2016)  3LP/FLAC


Tracklist: Oxygene 7-13 (1997)
C1. Oxygene (Part 7) (11:41)
C2. Oxygene (Part 8) (3:54)
C3. Oxygene (Part 9) (6:13)
D1. Oxygene (Part 10) (4:16)
D2. Oxygene (Part 11) (4:58)
D3. Oxygene (Part 12) (5:40)
D4. Oxygene (Part 13) (4:25)

Jean-Michel Jarre - Oxygene Trilogy (40th Anniversary Edition) (2016)  3LP/FLAC


Tracklist: Oxygene 3 (2016)
E1. Oxygene (Part 14) (5:27)
E2. Oxygene (Part 15) (6:40)
E3. Oxygene (Part 16) (6:50)
F1. Oxygene (Part 17) (4:20)
F2. Oxygene (Part 18) (2:48)
F3. Oxygene (Part 19) (5:45)
F4. Oxygene (Part 20) (7:59)

Jean-Michel Jarre - Oxygene Trilogy (40th Anniversary Edition) (2016)  3LP/FLAC


foobar2000 1.3.7 / Замер динамического диапазона (DR) 1.1.1
Дата отчёта: 2017-01-15 18:53:34

––––––––––––––––––––––––––––––––––––––––
Анализ: Jean-Michel Jarre / Oxygene Trilogy
––––––––––––––––––––––––––––––––––––––––

DR Пики RMS Продолжительность трека
––––––––––––––––––––––––––––––––––––––––
DR11 -5.67 дБ -20.80 дБ 7:40 1-Oxygene (Part 1)
DR11 -3.56 дБ -17.30 дБ 7:47 2-Oxygene (Part 2)
DR12 -3.87 дБ -19.09 дБ 3:22 3-Oxygene (Part 3)
DR12 -2.18 дБ -16.99 дБ 4:07 4-Oxygene (Part 4)
DR12 -4.58 дБ -21.57 дБ 10:27 5-Oxygene (Part 5)
DR13 -3.97 дБ -21.03 дБ 6:27 6-Oxygene (Part 6)
DR12 -2.66 дБ -17.36 дБ 11:43 7-Oxygene (Part 7)
DR12 -2.86 дБ -16.26 дБ 3:54 8-Oxygene (Part 8)
DR10 -4.68 дБ -18.83 дБ 6:15 9-Oxygene (Part 9)
DR11 -2.08 дБ -16.25 дБ 4:18 10-Oxygene (Part 10)
DR12 -1.98 дБ -16.60 дБ 4:58 11-Oxygene (Part 11)
DR12 -2.51 дБ -16.67 дБ 5:41 12-Oxygene (Part 12)
DR12 -1.48 дБ -16.34 дБ 4:25 13-Oxygene (Part 13)
DR9 -3.92 дБ -15.98 дБ 5:28 14-Oxygene (Part 14)
DR10 -2.71 дБ -16.38 дБ 6:41 15-Oxygene (Part 15)
DR10 -2.40 дБ -15.82 дБ 6:58 16-Oxygene (Part 16)
DR11 -2.90 дБ -17.04 дБ 4:22 17-Oxygene (Part 17)
DR8 -6.86 дБ -16.82 дБ 2:49 18-Oxygene (Part 18)
DR11 -3.27 дБ -18.52 дБ 5:45 19-Oxygene (Part 19)
DR10 -4.13 дБ -18.99 дБ 8:01 20-Oxygene (Part 20)
––––––––––––––––––––––––––––––––––––––––

Количество треков: 20
Реальные значения DR: DR11

Частота: 192000 Гц
Каналов: 2
Разрядность: 24
Битрейт: 4922 кбит/с
Кодек: FLAC
================================================================================


Jean-Michel Jarre - Oxygene Trilogy (40th Anniversary Edition) (2016)  3LP/FLAC


Thanks to the Original customer.