Tags
Language
Tags
May 2024
Su Mo Tu We Th Fr Sa
28 29 30 1 2 3 4
5 6 7 8 9 10 11
12 13 14 15 16 17 18
19 20 21 22 23 24 25
26 27 28 29 30 31 1

Peter Maffay - live-haftig Hamburg 2005 (2024) [Official Digital Download]

Posted By: pyatak
Peter Maffay - live-haftig Hamburg 2005 (2024) [Official Digital Download]

Peter Maffay - live-haftig Hamburg 2005 (2024) [Official Digital Download]
FLAC (tracks) 24-bit/44.1 kHz | Front Cover | Time - 68:19 minutes | 823 MB
Rock | Studio Master, Official Digital Download

Peter Alexander Makkay (born 30 August 1949), known as Peter Maffay (ˌpe.tɐ.ˈma.faɪ̯), is a Romanian-born German musician, singer, and composer.

Maffay's career started with the publication of his first single, "Du" ("You"). It was his biggest German hit in 1970 and brought him instant fame. With the 1979 album Steppenwolf, he became a major music star in Germany. The album sold 1.6 million copies, making it one of the best selling albums at that time. In 1980, the album Revanche ("Revenge") broke his previous record, selling more than 2.1 million copies.

Together with German Singer-Songwriter Johnny Tame he formed a successful country rock duo in 1976 called Tame & Maffay. They released two albums and continued a close cooperation until 1985.

Maffay also created a string of fairy tales about a little green dragon named Tabaluga. The tales, which spanned across five albums, were also turned into a musical. Maffay went on tour individually with Tabaluga & Lilli in Germany; he later released a live album, DVD, and live TV broadcast. The tour included Maffay, Alexis, Nino de Angelo, Rufus Beck, and Carl Carlton, among others.

TRACKLIST

1. Peter Maffay - Intro (Instrumental - live-haftig Hamburg 2005)
2. Peter Maffay - Gib die Liebe nicht auf (live-haftig Hamburg 2005)
3. Peter Maffay - Liebe wird verboten (live-haftig Hamburg 2005)
4. Peter Maffay - Früher, später (live-haftig Hamburg 2005)
5. Peter Maffay - Die Ruhe vor dem Sturm (live-haftig Hamburg 2005)
6. Peter Maffay - Ich werd dich begleiten (live-haftig Hamburg 2005)
7. Peter Maffay - Lebenswert (live-haftig Hamburg 2005)
8. Peter Maffay - Der Weg (live-haftig Hamburg 2005)
9. Peter Maffay - Der Kreis (live-haftig Hamburg 2005)
10. Peter Maffay - Hoch und höher (live-haftig Hamburg 2005)
11. Peter Maffay - Erkennst du dich wieder (live-haftig Hamburg 2005)
12. Peter Maffay - Kein Weg zu weit (live-haftig Hamburg 2005)

foobar2000 1.6.2 / Dynamic Range Meter 1.1.1
log date: 2024-04-20 09:54:09

––––––––––––––––––––––––––––––––––––––––
Analyzed: Peter Maffay / live-haftig Hamburg 2005
––––––––––––––––––––––––––––––––––––––––

DR Peak RMS Duration Track
––––––––––––––––––––––––––––––––––––––––
DR7 -0.20 dB -9.06 dB 3:44 01-Intro (Instrumental - live-haftig Hamburg 2005)
DR7 -0.20 dB -8.85 dB 6:17 02-Gib die Liebe nicht auf (live-haftig Hamburg 2005)
DR7 -0.20 dB -8.40 dB 5:05 03-Liebe wird verboten (live-haftig Hamburg 2005)
DR8 -0.20 dB -9.41 dB 5:29 04-Früher, später (live-haftig Hamburg 2005)
DR7 -0.20 dB -9.52 dB 6:23 05-Die Ruhe vor dem Sturm (live-haftig Hamburg 2005)
DR7 -0.20 dB -8.49 dB 6:26 06-Ich werd dich begleiten (live-haftig Hamburg 2005)
DR8 -0.20 dB -9.68 dB 5:01 07-Lebenswert (live-haftig Hamburg 2005)
DR8 -0.20 dB -9.91 dB 10:29 08-Der Weg (live-haftig Hamburg 2005)
DR7 -0.20 dB -8.53 dB 5:40 09-Der Kreis (live-haftig Hamburg 2005)
DR7 -0.20 dB -8.06 dB 4:59 10-Hoch und höher (live-haftig Hamburg 2005)
DR7 -0.20 dB -8.97 dB 4:09 11-Erkennst du dich wieder (live-haftig Hamburg 2005)
DR7 -0.20 dB -8.14 dB 4:37 12-Kein Weg zu weit (live-haftig Hamburg 2005)
––––––––––––––––––––––––––––––––––––––––

Number of tracks: 12
Official DR value: DR7

Samplerate: 44100 Hz
Channels: 2
Bits per sample: 24
Bitrate: 1719 kbps
Codec: FLAC
================================================================================



Thanks to the Original customer.