Tags
Language
Tags

Pyotr Illitch Tchaïkovski - The Best of Tchaikovsky Vol. 1 (2022) [Official Digital Download]

Posted By: pyatak
Pyotr Illitch Tchaïkovski - The Best of Tchaikovsky Vol. 1 (2022) [Official Digital Download]

Pyotr Illitch Tchaïkovski - The Best of Tchaikovsky Vol. 1 (2022) [Official Digital Download]
FLAC (tracks) 24-bit/48 kHz | Front Cover | Time - 41:44 minutes | 337 MB
Classical | Studio Master, Official Digital Download

Pyotr Ilyich Tchaikovsky 7 May 1840 – 6 November 1893) was a Russian composer of the Romantic period. He was the first Russian composer whose music would make a lasting impression internationally. He wrote some of the most popular concert and theatrical music in the current classical repertoire, including the ballets Swan Lake and The Nutcracker, the 1812 Overture, his First Piano Concerto, Violin Concerto, the Romeo and Juliet Overture-Fantasy, several symphonies, and the opera Eugene Onegin.

Although musically precocious, Tchaikovsky was educated for a career as a civil servant as there was little opportunity for a musical career in Russia at the time and no system of public music education. When an opportunity for such an education arose, he entered the nascent Saint Petersburg Conservatory, from which he graduated in 1865. The formal Western-oriented teaching that he received there set him apart from composers of the contemporary nationalist movement embodied by the Russian composers of The Five with whom his professional relationship was mixed.

Tchaikovsky's training set him on a path to reconcile what he had learned with the native musical practices to which he had been exposed from childhood. From that reconciliation, he forged a personal but unmistakably Russian style. The principles that governed melody, harmony and other fundamentals of Russian music ran completely counter to those that governed Western European music, which seemed to defeat the potential for using Russian music in large-scale Western composition or for forming a composite style, and it caused personal antipathies that dented Tchaikovsky's self-confidence. Russian culture exhibited a split personality, with its native and adopted elements having drifted apart increasingly since the time of Peter the Great. That resulted in uncertainty among the intelligentsia about the country's national identity, an ambiguity mirrored in Tchaikovsky's career.

TRACKLIST

1. Pyotr Illitch Tchaïkovski - Romance 1: (Arr. for Trombone and Piano) I
2. Pyotr Illitch Tchaïkovski - Romance 1: (Arr. for Trombone and Piano) II
3. Pyotr Illitch Tchaïkovski - Romance 1: (Arr. for Trombone and Piano) III
4. Pyotr Illitch Tchaïkovski - Romance 2: (Arr. for Trombone and Piano) I
5. Pyotr Illitch Tchaïkovski - Romance 2: (Arr. for Trombone and Piano) II
6. Pyotr Illitch Tchaïkovski - Romance 2: (Arr. for Trombone and Piano) III
7. Pyotr Illitch Tchaïkovski - Romance 3: (Arr. for Trombone and Piano) I
8. Pyotr Illitch Tchaïkovski - Romance 3: (Arr. for Trombone and Piano) II
9. Pyotr Illitch Tchaïkovski - Romance 3: (Arr. for Trombone and Piano) III
10. Pyotr Illitch Tchaïkovski - Romance 4: (Arr. for Trombone and Piano) I
11. Pyotr Illitch Tchaïkovski - Romance 4: II
12. Pyotr Illitch Tchaïkovski - Romance 4: III
13. Pyotr Illitch Tchaïkovski - Romance 4: IV
14. Pyotr Illitch Tchaïkovski - Romance 5: (Arr. for Trombone and Piano) I
15. Pyotr Illitch Tchaïkovski - Romance 5: (Arr. for Trombone and Piano) II
16. Pyotr Illitch Tchaïkovski - Romance 5: (Arr. for Trombone and Piano) III
17. Pyotr Illitch Tchaïkovski - Romance 6: (Arr. for Trombone and Piano) I
18. Pyotr Illitch Tchaïkovski - Romance 6: (Arr. for Trombone and Piano) II
19. Pyotr Illitch Tchaïkovski - Romance 6: (Arr. for Trombone and Piano) III
20. Nordic Wind Ensemble - The Nutcracker Suite, Op. 71a, TH 35: 1. Miniature Overture (Arr. For Wind Orchestra) I
21. Nordic Wind Ensemble - The Nutcracker Suite, Op. 71a, TH 35: 1. Miniature Overture (Arr. For Wind Orchestra) II
22. Nordic Wind Ensemble - The Nutcracker Suite, Op. 71a, TH 35: 1. Miniature Overture (Arr. For Wind Orchestra) III
23. Nordic Wind Ensemble - The Nutcracker Suite, Op.71a, TH 35: 2a. March (Arr. For Wind Orchestra) I
24. Nordic Wind Ensemble - The Nutcracker Suite, Op.71a, TH 35: 2a. March (Arr. For Wind Orchestra) II
25. Nordic Wind Ensemble - The Nutcracker Suite, Op. 71a, TH 35: 2b. Dance of the Sugar-Plum fairy (Arr. For Wind Orchestra) I
26. Nordic Wind Ensemble - The Nutcracker Suite, Op. 71a, TH 35: 2b. Dance of the Sugar-Plum fairy (Arr. For Wind Orchestra) II
27. Nordic Wind Ensemble - The Nutcracker Suite, Op. - 71a, 35: 2c. Russian Dance. Trepak (Arr. For Wind Orchestra)
28. Nordic Wind Ensemble - The Nutcracker Suite, Op. 71a, TH 35: 2d. Arabian Dance (Arr. For Wind Orchestra) I
29. Nordic Wind Ensemble - The Nutcracker Suite, Op. 71a, TH 35: 2d. Arabian Dance (Arr. For Wind Orchestra) II
30. Nordic Wind Ensemble - The Nutcracker Suite, Op. 71a, TH 35: 2d. Arabian Dance (Arr. For Wind Orchestra) III
31. Nordic Wind Ensemble - The Nutcracker Suite, Op. - 71a, TH 35: 2e Chinese Dance (Arr. For Wind Orchestra)
32. Nordic Wind Ensemble - The Nutcracker Suite, Op. - 71a, TH 35: 2f. Dance of the Reed-Pipes (Arr. For Wind Orchestra) I
33. Nordic Wind Ensemble - The Nutcracker Suite, Op. - 71a, TH 35: 2f. Dance of the Reed-Pipes (Arr. For Wind Orchestra) II
34. Nordic Wind Ensemble - The Nutcracker Suite, Op. 71a, TH 35: 3. Walz of the Flowers (Arr. For Wind Orchestra) I
35. Nordic Wind Ensemble - The Nutcracker Suite, Op. 71a, TH 35: 3. Walz of the Flowers (Arr. For Wind Orchestra) II
36. Nordic Wind Ensemble - The Nutcracker Suite, Op. 71a, TH 35: 3. Walz of the Flowers (Arr. For Wind Orchestra) III
37. Nordic Wind Ensemble - The Nutcracker Suite, Op. 71a, TH 35: 3. Walz of the Flowers (Arr. For Wind Orchestra) IV
38. Nordic Wind Ensemble - The Nutcracker Suite, Op. 71a, TH 35: 3. Walz of the Flowers (Arr. For Wind Orchestra) V

foobar2000 1.6.2 / Dynamic Range Meter 1.1.1
log date: 2022-06-29 16:19:55

––––––––––––––––––––––––––––––––––––––––
Analyzed: Nordic Wind Ensemble / The Best of Tchaikovsky Vol. 1 (1-19)
Pyotr Illitch Tchaïkovski / The Best of Tchaikovsky Vol. 1 (20-38)
––––––––––––––––––––––––––––––––––––––––

DR Peak RMS Duration Track
––––––––––––––––––––––––––––––––––––––––
DR13 -0.50 dB -19.37 dB 1:05 20-The Nutcracker Suite, Op. 71a, TH 35: 1. Miniature Overture (Arr. For Wind Orchestra) I
DR13 -0.50 dB -16.93 dB 1:14 21-The Nutcracker Suite, Op. 71a, TH 35: 1. Miniature Overture (Arr. For Wind Orchestra) II
DR12 -0.50 dB -16.15 dB 1:21 22-The Nutcracker Suite, Op. 71a, TH 35: 1. Miniature Overture (Arr. For Wind Orchestra) III
DR14 -0.50 dB -17.52 dB 1:14 23-The Nutcracker Suite, Op.71a, TH 35: 2a. March (Arr. For Wind Orchestra) I
DR12 -0.50 dB -15.79 dB 1:32 24-The Nutcracker Suite, Op.71a, TH 35: 2a. March (Arr. For Wind Orchestra) II
DR13 -5.23 dB -22.58 dB 1:02 25-The Nutcracker Suite, Op. 71a, TH 35: 2b. Dance of the Sugar-Plum fairy (Arr. For Wind Orchestra) I
DR14 -1.82 dB -21.67 dB 1:04 26-The Nutcracker Suite, Op. 71a, TH 35: 2b. Dance of the Sugar-Plum fairy (Arr. For Wind Orchestra) II
DR11 -0.10 dB -15.20 dB 1:25 27-The Nutcracker Suite, Op. - 71a, 35: 2c. Russian Dance. Trepak (Arr. For Wind Orchestra)
DR10 -13.46 dB -26.69 dB 1:02 28-The Nutcracker Suite, Op. 71a, TH 35: 2d. Arabian Dance (Arr. For Wind Orchestra) I
DR9 -7.95 dB -21.63 dB 1:01 29-The Nutcracker Suite, Op. 71a, TH 35: 2d. Arabian Dance (Arr. For Wind Orchestra) II
DR10 -9.50 dB -23.79 dB 1:12 30-The Nutcracker Suite, Op. 71a, TH 35: 2d. Arabian Dance (Arr. For Wind Orchestra) III
DR12 -3.09 dB -19.70 dB 1:09 31-The Nutcracker Suite, Op. - 71a, TH 35: 2e Chinese Dance (Arr. For Wind Orchestra)
DR13 -0.50 dB -19.63 dB 1:38 32-The Nutcracker Suite, Op. - 71a, TH 35: 2f. Dance of the Reed-Pipes (Arr. For Wind Orchestra) I
DR14 -0.50 dB -19.46 dB 1:07 33-The Nutcracker Suite, Op. - 71a, TH 35: 2f. Dance of the Reed-Pipes (Arr. For Wind Orchestra) II
DR13 -0.50 dB -18.26 dB 1:04 34-The Nutcracker Suite, Op. 71a, TH 35: 3. Walz of the Flowers (Arr. For Wind Orchestra) I
DR10 -0.50 dB -16.52 dB 1:11 35-The Nutcracker Suite, Op. 71a, TH 35: 3. Walz of the Flowers (Arr. For Wind Orchestra) II
DR11 -0.50 dB -16.83 dB 1:10 36-The Nutcracker Suite, Op. 71a, TH 35: 3. Walz of the Flowers (Arr. For Wind Orchestra) III
DR10 -0.50 dB -13.73 dB 1:06 37-The Nutcracker Suite, Op. 71a, TH 35: 3. Walz of the Flowers (Arr. For Wind Orchestra) IV
DR11 -0.50 dB -15.86 dB 1:01 38-The Nutcracker Suite, Op. 71a, TH 35: 3. Walz of the Flowers (Arr. For Wind Orchestra) V
DR9 -3.99 dB -19.55 dB 1:05 01-Romance 1: (Arr. for Trombone and Piano) I
DR10 -0.10 dB -15.65 dB 1:13 02-Romance 1: (Arr. for Trombone and Piano) II
DR10 -5.38 dB -21.04 dB 1:32 03-Romance 1: (Arr. for Trombone and Piano) III
DR10 -7.32 dB -21.94 dB 0:54 04-Romance 2: (Arr. for Trombone and Piano) I
DR9 -0.10 dB -14.75 dB 1:02 05-Romance 2: (Arr. for Trombone and Piano) II
DR9 -7.58 dB -22.59 dB 0:38 06-Romance 2: (Arr. for Trombone and Piano) III
DR10 -0.10 dB -14.95 dB 1:16 07-Romance 3: (Arr. for Trombone and Piano) I
DR11 -0.10 dB -15.23 dB 1:03 08-Romance 3: (Arr. for Trombone and Piano) II
DR8 -0.58 dB -15.63 dB 0:39 09-Romance 3: (Arr. for Trombone and Piano) III
DR10 -3.77 dB -19.17 dB 1:06 10-Romance 4: (Arr. for Trombone and Piano) I
DR10 -2.15 dB -16.88 dB 0:48 11-Romance 4: II
DR10 -1.65 dB -14.86 dB 0:57 12-Romance 4: III
DR11 -6.31 dB -23.34 dB 1:09 13-Romance 4: IV
DR8 -2.25 dB -15.49 dB 1:01 14-Romance 5: (Arr. for Trombone and Piano) I
DR9 -0.10 dB -10.93 dB 0:53 15-Romance 5: (Arr. for Trombone and Piano) II
DR7 -3.69 dB -24.75 dB 0:49 16-Romance 5: (Arr. for Trombone and Piano) III
DR12 -3.75 dB -21.66 dB 1:07 17-Romance 6: (Arr. for Trombone and Piano) I
DR11 -4.13 dB -17.67 dB 0:50 18-Romance 6: (Arr. for Trombone and Piano) II
DR10 -0.10 dB -17.24 dB 1:04 19-Romance 6: (Arr. for Trombone and Piano) III
––––––––––––––––––––––––––––––––––––––––

Number of tracks: 38
Official DR value: DR11

Samplerate: 48000 Hz
Channels: 2
Bits per sample: 24
Bitrate: 1050 kbps
Codec: FLAC
================================================================================



Thanks to the Original customer.