Tags
Language
Tags
June 2024
Su Mo Tu We Th Fr Sa
26 27 28 29 30 31 1
2 3 4 5 6 7 8
9 10 11 12 13 14 15
16 17 18 19 20 21 22
23 24 25 26 27 28 29
30 1 2 3 4 5 6

Régine Crespin - Berlioz - Les Nuits d'été & Ravel- Shéhérazade by Régine Crespin (2023) [Official Digital Download 24/96]

Posted By: pyatak
Régine Crespin - Berlioz - Les Nuits d'été & Ravel- Shéhérazade by Régine Crespin (2023) [Official Digital Download 24/96]

Régine Crespin - Berlioz - Les Nuits d'été & Ravel- Shéhérazade by Régine Crespin (2023) [Official Digital Download 24/96]
FLAC (tracks) 24-bit/96 kHz | Front Cover | Time - 46:17 minutes | 823 MB
Classical | Studio Master, Official Digital Download

For many years Janet Baker was the measure of all things for me when it came to "Les Nuits d'été" by Hector Berlioz. Her recordings under Barbirolli and Hickox will certainly retain their value, but the French soprano Régine Crespin (1927-2007) managed to present an at least equivalent version of these wonderful chants in 1965. With the unforgettable conductor Ernest Ansermet and the Orchestre de la Suisse Romande, founded by him in 1918, she has reached a maturity of composition that can hardly be surpassed. In addition, there is a wonderful, clear and absolutely pure voice that resounds to the highest register, which gives the highest pleasure from the first to the last bar. You can't sing this more perfectly.
As with the original LP edition, the Berlioz cycle is coupled with Maurice Ravel's "Shéhérazade". Here, too, Régine Crespin is an ideal interpreter who does not miss even the slightest nuance. Again Ernest accompanies Ansermet with his proven orchestra competently and spreads a luxurious sound carpet for the singer.

TRACKLIST

1. Régine Crespin - I. Villanelle - Les Nuits d’été, Op. 7, H 81 (Remastered 2023, Geneva 1963)
2. Régine Crespin - II. Le Spectre de la Rose - Les Nuits d’été, Op. 7, H 81 (Remastered 2023, Geneva 1963)
3. Régine Crespin - III. Sur les Lagunes: Lamento - Les Nuits d’été, Op. 7, H 81 (Remastered 2023, Geneva 1963)
4. Régine Crespin - IV. Absence - Les Nuits d’été, Op. 7, H 81 (Remastered 2023, Geneva 1963)
5. Régine Crespin - V. Au Cimetière: Clair de Lune - Les Nuits d’été, Op. 7, H 81 (Remastered 2023, Geneva 1963)
6. Régine Crespin - VI. L'île Inconnue: Barcarolle - Les Nuits d’été, Op. 7, H 81 (Remastered 2023, Geneva 1963)
7. Régine Crespin - I. Asie - Shéhérazade IMR 44 (Remastered 2023, Geneva 1963)
8. Régine Crespin - II. La Flûte Enchantée - Shéhérazade IMR 44 (Remastered 2023, Geneva 1963)
9. Régine Crespin - III. L’indifférent - Shéhérazade IMR 44 (Remastered 2023, Geneva 1963)

foobar2000 1.6.2 / Dynamic Range Meter 1.1.1
log date: 2023-05-17 12:53:57

––––––––––––––––––––––––––––––––––––––––
Analyzed: Régine Crespin / Berlioz: Les Nuits d'été & Ravel: Shéhérazade by Régine Crespin
––––––––––––––––––––––––––––––––––––––––

DR Peak RMS Duration Track
––––––––––––––––––––––––––––––––––––––––
DR13 -0.05 dB -16.41 dB 2:19 01-I. Villanelle - Les Nuits d’été, Op. 7, H 81 (Remastered 2023, Geneva 1963)
DR12 -0.04 dB -18.61 dB 7:07 02-II. Le Spectre de la Rose - Les Nuits d’été, Op. 7, H 81 (Remastered 2023, Geneva 1963)
DR10 -0.03 dB -14.88 dB 5:26 03-III. Sur les Lagunes: Lamento - Les Nuits d’été, Op. 7, H 81 (Remastered 2023, Geneva 1963)
DR11 -0.01 dB -16.07 dB 6:09 04-IV. Absence - Les Nuits d’été, Op. 7, H 81 (Remastered 2023, Geneva 1963)
DR13 -0.03 dB -16.84 dB 5:45 05-V. Au Cimetière: Clair de Lune - Les Nuits d’été, Op. 7, H 81 (Remastered 2023, Geneva 1963)
DR11 -0.02 dB -15.24 dB 3:48 06-VI. L'île Inconnue: Barcarolle - Les Nuits d’été, Op. 7, H 81 (Remastered 2023, Geneva 1963)
DR11 0.00 dB -16.56 dB 9:10 07-I. Asie - Shéhérazade IMR 44 (Remastered 2023, Geneva 1963)
DR10 -0.01 dB -16.34 dB 2:41 08-II. La Flûte Enchantée - Shéhérazade IMR 44 (Remastered 2023, Geneva 1963)
DR12 -3.96 dB -22.83 dB 3:53 09-III. L’indifférent - Shéhérazade IMR 44 (Remastered 2023, Geneva 1963)
––––––––––––––––––––––––––––––––––––––––

Number of tracks: 9
Official DR value: DR11

Samplerate: 96000 Hz
Channels: 2
Bits per sample: 24
Bitrate: 2337 kbps
Codec: FLAC
================================================================================



Thanks to the Original customer.