Tags
Language
Tags

Rick Astley - Whenever You Need Somebody (1987/2022) [Official Digital Download 24/96]

Posted By: pyatak
Rick Astley - Whenever You Need Somebody (1987/2022) [Official Digital Download 24/96]

Rick Astley - Whenever You Need Somebody (1987/2022) [Official Digital Download 24/96]
FLAC (tracks) 24-bit/96 kHz | Front Cover | Time - 36:48 minutes | 830 MB
Pop | Studio Master, Official Digital Download

Whenever You Need Somebody is the debut studio album by English singer Rick Astley, released on 16 November 1987 by RCA Records. It is his best-selling album and, according to his own official website, has sold 15.2 million copies worldwide. The album is listed as the 136th best-selling album in Spain, and was the seventh best-selling album of 1987 in the United Kingdom. A remastered version containing rare remixes and extended versions, was released on 12 April 2010.

Celebrating the 15th anniversary for the Record Store Day UK, a reissue is set to be released on 23 April 2022 as a limited edition with a red vinyl, only 1800 of them will be sold. After 35 years, a 2022 remastered edition of the album is set to be released on 6 May 2022, including a double CD album with a Pianoforte version of "Never Gonna Give You Up", the reimagined versions of "Together Forever", "Whenever You Need Somebody", and "When I Fall In Love" on the CD1 from his compilation album The Best of Me, also included with B-sides, instrumentals, and remixes for the CD2.[better source needed] The Amazon exclusive signed edition of the album was also available to pre-order, all hand-signed and only limited to 2000 copies.[better source needed] Due to the unavoidable global supply chain issues, it was rescheduled to be released on 20 May 2022.

The writing credit of Dick Spatsley on "The Love Has Gone" was a reference to a running gag by Smash Hits magazine that deliberately misspelled his name.

TRACKLIST

1. Rick Astley - Never Gonna Give You Up (2022 - Remaster)
2. Rick Astley - Whenever You Need Somebody (2022 - Remaster)
3. Rick Astley - Together Forever (2022 - Remaster)
4. Rick Astley - It Would Take a Strong Strong Man (2022 - Remaster)
5. Rick Astley - The Love Has Gone (2022 - Remaster)
6. Rick Astley - Don't Say Goodbye (2022 - Remaster)
7. Rick Astley - Slipping Away (2022 - Remaster)
8. Rick Astley - No More Looking for Love (2022 - Remaster)
9. Rick Astley - You Move Me (2022 - Remaster)
10. Rick Astley - When I Fall in Love (2022 - Remaster)

foobar2000 1.6.2 / Dynamic Range Meter 1.1.1
log date: 2022-06-03 14:40:27

––––––––––––––––––––––––––––––––––––––––
Analyzed: Rick Astley / Whenever You Need Somebody
––––––––––––––––––––––––––––––––––––––––

DR Peak RMS Duration Track
––––––––––––––––––––––––––––––––––––––––
DR9 -0.31 dB -11.71 dB 3:34 01-Never Gonna Give You Up (2022 - Remaster)
DR10 -0.31 dB -12.02 dB 3:53 02-Whenever You Need Somebody (2022 - Remaster)
DR10 -0.31 dB -11.12 dB 3:26 03-Together Forever (2022 - Remaster)
DR12 -0.31 dB -13.56 dB 3:40 04-It Would Take a Strong Strong Man (2022 - Remaster)
DR11 -0.32 dB -12.86 dB 4:20 05-The Love Has Gone (2022 - Remaster)
DR10 -0.51 dB -11.57 dB 4:09 06-Don't Say Goodbye (2022 - Remaster)
DR11 -0.31 dB -12.81 dB 3:52 07-Slipping Away (2022 - Remaster)
DR10 -0.31 dB -11.94 dB 3:13 08-No More Looking for Love (2022 - Remaster)
DR11 -0.32 dB -13.05 dB 3:42 09-You Move Me (2022 - Remaster)
DR13 -0.75 dB -17.00 dB 3:04 10-When I Fall in Love (2022 - Remaster)
––––––––––––––––––––––––––––––––––––––––

Number of tracks: 10
Official DR value: DR11

Samplerate: 96000 Hz
Channels: 2
Bits per sample: 24
Bitrate: 2824 kbps
Codec: FLAC
================================================================================



Thanks to the Original customer.