Tags
Language
Tags
December 2022
Su Mo Tu We Th Fr Sa
27 28 29 30 1 2 3
4 5 6 7 8 9 10
11 12 13 14 15 16 17
18 19 20 21 22 23 24
25 26 27 28 29 30 31

Royal Philharmonic Orchestra - Disney Goes Classical (2020) [Official Digital Download 24/96]

Posted By: pyatak
Royal Philharmonic Orchestra - Disney Goes Classical (2020) [Official Digital Download 24/96]

Royal Philharmonic Orchestra - Disney Goes Classical (2020) [Official Digital Download 24/96]
FLAC (tracks) 24-bit/96 kHz | Front Cover | Time - 50:54 minutes | 962 MB
Classical | Studio Master, Official Digital Download

n album of brand new, lush recordings of the world's favorite songs from beloved Disney films such as The Lion King, Frozen, and Toy Story, Disney Goes Classical was recorded by the prestigious Royal Philharmonic Orchestra and features special guest artists Matteo Bocelli, Renee Fleming, and more.

TRACKLIST

1. Royal Philharmonic Orchestra - Overture (From "Mary Poppins")
2. Royal Philharmonic Orchestra - How Far I'll Go (From "Moana")
3. Royal Philharmonic Orchestra - A Whole New World (From "Aladdin")
4. Royal Philharmonic Orchestra - Can You Feel the Love Tonight (From "The Lion King")
5. Royal Philharmonic Orchestra - Almost There (From "Princess and the Frog")
6. Royal Philharmonic Orchestra - Go The Distance (From "Hercules")
7. Royal Philharmonic Orchestra - Colors of the Wind (From "Pocahontas")
8. Royal Philharmonic Orchestra - When She Loved Me (From "Toy Story 2")
9. Royal Philharmonic Orchestra - The Bare Necessities (From "The Jungle Book")
10. Royal Philharmonic Orchestra - Part Of Your World (From "The Little Mermaid")
11. Royal Philharmonic Orchestra - Beauty and the Beast (From "Beauty and the Beast")
12. Royal Philharmonic Orchestra - I See The Light (From "Tangled")
13. Royal Philharmonic Orchestra - Let It Go (From "Frozen")
14. Royal Philharmonic Orchestra - Reflection (From "Mulan")
15. Royal Philharmonic Orchestra - When You Wish Upon A Star (From "Pinocchio")

foobar2000 1.3.16 / Dynamic Range Meter 1.1.1
log date: 2020-10-02 06:38:31

––––––––––––––––––––––––––––––––––––––––
Analyzed: Royal Philharmonic Orchestra / Disney Goes Classical
––––––––––––––––––––––––––––––––––––––––

DR Peak RMS Duration Track
––––––––––––––––––––––––––––––––––––––––
DR10 -1.19 dB -15.45 dB 3:07 01-Overture (From "Mary Poppins")
DR9 -1.20 dB -15.19 dB 2:49 02-How Far I'll Go (From "Moana")
DR9 -1.20 dB -14.30 dB 2:43 03-A Whole New World (From "Aladdin")
DR8 -1.20 dB -13.88 dB 4:04 04-Can You Feel the Love Tonight (From "The Lion King")
DR10 -1.19 dB -14.91 dB 2:27 05-Almost There (From "Princess and the Frog")
DR8 -1.20 dB -14.36 dB 4:22 06-Go The Distance (From "Hercules")
DR9 -1.20 dB -14.81 dB 3:29 07-Colors of the Wind (From "Pocahontas")
DR12 -1.20 dB -16.33 dB 3:02 08-When She Loved Me (From "Toy Story 2")
DR12 -1.19 dB -17.02 dB 3:42 09-The Bare Necessities (From "The Jungle Book")
DR11 -1.20 dB -17.80 dB 4:13 10-Part Of Your World (From "The Little Mermaid")
DR12 -3.14 dB -19.73 dB 2:47 11-Beauty and the Beast (From "Beauty and the Beast")
DR11 -1.20 dB -16.87 dB 3:53 12-I See The Light (From "Tangled")
DR11 -1.20 dB -17.16 dB 3:43 13-Let It Go (From "Frozen")
DR11 -1.20 dB -16.13 dB 2:35 14-Reflection (From "Mulan")
DR9 -1.20 dB -13.58 dB 4:01 15-When You Wish Upon A Star (From "Pinocchio")
––––––––––––––––––––––––––––––––––––––––

Number of tracks: 15
Official DR value: DR10

Samplerate: 96000 Hz
Channels: 2
Bits per sample: 24
Bitrate: 2717 kbps
Codec: FLAC
================================================================================



Thanks to the Original customer.