Tags
Language
Tags

Royal Scottish National Orchestra Wind Ensemble - Pilgrim of Curiosity (2021) [Official Digital Download 24/96]

Posted By: pyatak
Royal Scottish National Orchestra Wind Ensemble - Pilgrim of Curiosity (2021) [Official Digital Download 24/96]

Royal Scottish National Orchestra Wind Ensemble - Pilgrim of Curiosity (2021) [Official Digital Download 24/96]
FLAC (tracks) 24-bit/44.1 kHz | Front Cover | Time - 73:34 minutes | 1,23 GB
Classical | Label: Delphian Records, Official Digital Download

A key presence in Glasgow’s musical life as composer and teacher, Oliver Iredale Searle is revealed in this first album devoted to his work as a poet of place and of sensation. Three works for wind ensembles vividly evoke journeys and their destinations, in a panoply of sights and sounds stretching from (and sometimes forging unexpected connections between) Chicago to Italy, the Baltic and Southeast Asia.

The wind principals of the Royal Scottish National Orchestra provide performances of exceptional calibre, while Carla Rees’s passionate commitment to building a contemporary repertoire for Baroque flute shines through in a solo piece that she commissioned and premiered.

TRACKLIST

1. RSNO Wind Ensemble - Snowbirds
2. RSNO Wind Ensemble - Dalriada (An Argyll Suite) for reed trio: I. Temple
3. RSNO Wind Ensemble - Dalriada (An Argyll Suite) for reed trio: II. Kerrera Blues
4. RSNO Wind Ensemble - Dalriada (An Argyll Suite) for reed trio: III. Corners
5. RSNO Wind Ensemble - Dalriada (An Argyll Suite) for reed trio: IV. Harbour Dreams
6. RSNO Wind Ensemble - Dalriada (An Argyll Suite) for reed trio: V. Toward (A Lamont Lament)
7. RSNO Wind Ensemble - Dalriada (An Argyll Suite) for reed trio: VI. Kildavanan
8. Carla Rees - Faith, Hopes and Charity
9. RSNO Wind Ensemble - Pilgrim of Curiosity: I. Orthodox
10. RSNO Wind Ensemble - Pilgrim of Curiosity: II. Millport Godzilla
11. RSNO Wind Ensemble - Pilgrim of Curiosity: III. Blue Benedictine
12. RSNO Wind Ensemble - Pilgrim of Curiosity: IV. Regeren
13. RSNO Wind Ensemble - Pilgrim of Curiosity: V. Illinois Acceptance (arr. from the final movement of Erwin Schulhoff, String Quartet No. 1)
14. RSNO Wind Ensemble - Pilgrim of Curiosity: VI. Waverley Dawn
15. RSNO Wind Ensemble - Pilgrim of Curiosity: VII. Namu
16. RSNO Wind Ensemble - Pilgrim of Curiosity: VIII. Selamat Tinggal

foobar2000 1.6.2 / Dynamic Range Meter 1.1.1
log date: 2021-09-25 09:00:50

––––––––––––––––––––––––––––––––––––––––
Analyzed: Carla Rees / Pilgrim of Curiosity (1)
RSNO Wind Ensemble / Pilgrim of Curiosity (2-16)
––––––––––––––––––––––––––––––––––––––––

DR Peak RMS Duration Track
––––––––––––––––––––––––––––––––––––––––
DR17 -5.66 dB -27.39 dB 6:33 08-Faith, Hopes and Charity
DR15 -0.40 dB -20.25 dB 9:06 01-Snowbirds
DR10 -4.74 dB -18.05 dB 5:04 02-Dalriada (An Argyll Suite) for reed trio: I. Temple
DR12 -4.86 dB -20.81 dB 3:41 03-Dalriada (An Argyll Suite) for reed trio: II. Kerrera Blues
DR12 -4.47 dB -21.05 dB 3:17 04-Dalriada (An Argyll Suite) for reed trio: III. Corners
DR12 -5.18 dB -20.18 dB 2:52 05-Dalriada (An Argyll Suite) for reed trio: IV. Harbour Dreams
DR10 -10.05 dB -23.54 dB 3:36 06-Dalriada (An Argyll Suite) for reed trio: V. Toward (A Lamont Lament)
DR13 -1.56 dB -20.91 dB 3:08 07-Dalriada (An Argyll Suite) for reed trio: VI. Kildavanan
DR12 -0.42 dB -17.24 dB 3:06 09-Pilgrim of Curiosity: I. Orthodox
DR12 -0.40 dB -17.26 dB 5:12 10-Pilgrim of Curiosity: II. Millport Godzilla
DR10 -5.15 dB -20.00 dB 4:58 11-Pilgrim of Curiosity: III. Blue Benedictine
DR12 -0.40 dB -16.32 dB 4:45 12-Pilgrim of Curiosity: IV. Regeren
DR12 -1.91 dB -20.00 dB 6:01 13-Pilgrim of Curiosity: V. Illinois Acceptance (arr. from the final movement of Erwin Schulhoff, String Quartet No. 1)
DR15 -0.68 dB -24.02 dB 4:01 14-Pilgrim of Curiosity: VI. Waverley Dawn
DR10 -1.06 dB -16.15 dB 4:10 15-Pilgrim of Curiosity: VII. Namu
DR13 -0.40 dB -17.52 dB 4:15 16-Pilgrim of Curiosity: VIII. Selamat Tinggal
––––––––––––––––––––––––––––––––––––––––

Number of tracks: 16
Official DR value: DR12

Samplerate: 96000 Hz
Channels: 2
Bits per sample: 24
Bitrate: 2485 kbps
Codec: FLAC
================================================================================



Thanks to the Original customer.