Tags
Language
Tags

Ruth Price - Ruth Price Sings With The Johnny Smith Quartet (1956/2021) [Official Digital Download 24/96]

Posted By: pyatak
Ruth Price - Ruth Price Sings With The Johnny Smith Quartet (1956/2021) [Official Digital Download 24/96]

Ruth Price - Ruth Price Sings With The Johnny Smith Quartet (1956/2021) [Official Digital Download 24/96]
FLAC (tracks) 24-bit/96 kHz | Front Cover | Time - 34:59 minutes | 578 MB
Vocal Jazz | Label: Royal Roost/RevOla, Official Digital Download

Ruth Price (born April 27, 1938) is an American jazz singer and Artistic Director of the Jazz Bakery in Los Angeles, California. Price attended ballet school in 1952. In 1954, she sang with Charlie Ventura and later worked as a singer and dancer in Philadelphia and New York City. She moved to Hollywood in 1957 and toured with Harry James from 1964 to 1965. In the 1960s and 1970s she had several TV appearances both as herself in musical specials and as an actress in popular TV shows of the time.

TRACKLIST

1. Ruth Price - I'm Nobody's Baby (Remastered)
2. Ruth Price - It Never Entered My Mind (Remastered)
3. Ruth Price - Wonderful Guy (Remastered)
4. Ruth Price - Until The Real Thing Comes Along (Remastered)
5. Ruth Price - This Heart Of Mine (Remastered)
6. Ruth Price - When You Wish Upon A Star (Remastered)
7. Ruth Price - Time After Time (Remastered)
8. Ruth Price - Goodbye (Remastered)
9. Ruth Price - Back In Your Own Back Yard (Remastered)
10. Ruth Price - I'll Be Seeing You (Remastered)
11. Ruth Price - Run, Little Rain Drop, Run (Remastered)
12. Ruth Price - Sleeping Bee (Remastered)

foobar2000 1.6.2 / Dynamic Range Meter 1.1.1
log date: 2021-08-11 15:16:30

––––––––––––––––––––––––––––––––––––––––
Analyzed: Ruth Price / Ruth Price Sings With The Johnny Smith Quartet
––––––––––––––––––––––––––––––––––––––––

DR Peak RMS Duration Track
––––––––––––––––––––––––––––––––––––––––
DR9 -3.68 dB -15.12 dB 1:56 01-I'm Nobody's Baby (Remastered)
DR8 -5.72 dB -17.44 dB 3:53 02-It Never Entered My Mind (Remastered)
DR10 -3.34 dB -15.80 dB 2:09 03-Wonderful Guy (Remastered)
DR10 -4.25 dB -17.72 dB 3:36 04-Until The Real Thing Comes Along (Remastered)
DR11 -2.85 dB -15.99 dB 2:38 05-This Heart Of Mine (Remastered)
DR9 -4.80 dB -17.50 dB 3:34 06-When You Wish Upon A Star (Remastered)
DR9 -4.02 dB -15.32 dB 2:37 07-Time After Time (Remastered)
DR10 -3.05 dB -16.12 dB 3:24 08-Goodbye (Remastered)
DR10 -4.77 dB -15.99 dB 2:05 09-Back In Your Own Back Yard (Remastered)
DR9 -4.66 dB -17.07 dB 3:18 10-I'll Be Seeing You (Remastered)
DR11 -3.06 dB -15.21 dB 2:26 11-Run, Little Rain Drop, Run (Remastered)
DR11 -3.82 dB -17.39 dB 3:22 12-Sleeping Bee (Remastered)
––––––––––––––––––––––––––––––––––––––––

Number of tracks: 12
Official DR value: DR10

Samplerate: 96000 Hz
Channels: 2
Bits per sample: 24
Bitrate: 2212 kbps
Codec: FLAC
================================================================================



Thanks to the Original customer.