Tags
Language
Tags

Sam Phillips - Martinis & Bikinis (1994/2021) [Official Digital Download 24/96]

Posted By: pyatak
Sam Phillips - Martinis & Bikinis (1994/2021) [Official Digital Download 24/96]

Sam Phillips - Martinis & Bikinis (1994/2021) [Official Digital Download 24/96]
FLAC (tracks) 24-bit/96 kHz | Front Cover | Time - 46:29 minutes | 981 MB
Rock | Label: Virgin Records, Official Digital Download

Martinis & Bikinis is the seventh studio album by American singer and songwriter Sam Phillips. It was released on March 8, 1994 and re-released on July 17, 2012."Circle of Fire" was nominated for Best Female Rock Vocal Performance at the 37th Annual Grammy Awards.

TRACKLIST

1. Sam Phillips - Love And Kisses
2. Sam Phillips - Signposts
3. Sam Phillips - Same Rain
4. Sam Phillips - Baby I Can't Please You
5. Sam Phillips - Circle Of Fire
6. Sam Phillips - Strawberry Road
7. Sam Phillips - When I Fall
8. Sam Phillips - Same Changes
9. Sam Phillips - Black Sky
10. Sam Phillips - Fighting With Fire
11. Sam Phillips - I Need Love
12. Sam Phillips - Wheel Of The Broken Voice
13. Sam Phillips - Gimme Some Truth

foobar2000 1.6.2 / Dynamic Range Meter 1.1.1
log date: 2021-10-08 08:46:31

––––––––––––––––––––––––––––––––––––––––
Analyzed: Sam Phillips / Martinis & Bikinis
––––––––––––––––––––––––––––––––––––––––

DR Peak RMS Duration Track
––––––––––––––––––––––––––––––––––––––––
DR12 -3.22 dB -18.52 dB 1:01 01-Love And Kisses
DR11 -0.39 dB -13.25 dB 2:24 02-Signposts
DR11 -0.39 dB -13.95 dB 4:14 03-Same Rain
DR11 -0.39 dB -13.18 dB 3:51 04-Baby I Can't Please You
DR10 -0.39 dB -12.52 dB 3:15 05-Circle Of Fire
DR10 -0.72 dB -14.18 dB 3:59 06-Strawberry Road
DR12 -0.87 dB -14.20 dB 5:06 07-When I Fall
DR11 -0.66 dB -13.33 dB 4:45 08-Same Changes
DR11 -0.39 dB -14.54 dB 4:04 09-Black Sky
DR11 -0.39 dB -13.25 dB 3:02 10-Fighting With Fire
DR11 -0.39 dB -12.57 dB 3:41 11-I Need Love
DR11 -0.58 dB -13.67 dB 4:01 12-Wheel Of The Broken Voice
DR11 -1.41 dB -16.52 dB 3:25 13-Gimme Some Truth
––––––––––––––––––––––––––––––––––––––––

Number of tracks: 13
Official DR value: DR11

Samplerate: 96000 Hz
Channels: 2
Bits per sample: 24
Bitrate: 2816 kbps
Codec: FLAC
================================================================================



Thanks to the Original customer.