Tags
Language
Tags

Sibylle Fischer - Korngold- Songs, Vol. 2 (2021) [Official Digital Download]

Posted By: pyatak
Sibylle Fischer - Korngold- Songs, Vol. 2 (2021) [Official Digital Download]

Sibylle Fischer - Korngold- Songs, Vol. 2 (2021) [Official Digital Download]
FLAC (tracks) 24-bit/44.1 kHz | Front Cover | Time - 57:41 minutes | 533 MB
Classical | Label: Naxos, Official Digital Download

In his song settings, Korngold pursued the Romantic ideal and lavished considerable care and inventiveness on their composition. His seemingly effortless gift for melody is everywhere apparent in this second volume, whether in the early works or the songs from the 1940s, which would not sound out of place in an operetta or a Broadway musical. Also present, notably in the Drei Gesänge, Op. 18, is an exciting, experimental approach to harmony that reflects the music of his most radical opera also, Das Wunder der Heliane.

TRACKLIST

1. Sibylle Fischer - No. 1, Sterbelied
2. Sibylle Fischer - No. 2, Dies eine kann mein Sehnen nimmer fassen
3. Sibylle Fischer - No. 3, Mond, so gehst du wieder auf
4. Sibylle Fischer - No. 4, Gefaßter Abschied
5. Uwe Schenker-Primus - No. 1, In meine innige Nacht
6. Uwe Schenker-Primus - No. 2, Tu ab den Schmerz
7. Uwe Schenker-Primus - No. 3, Versuchung
8. Britta Stallmeister - Tomorrow, Op. 33 (From "The Constant Nymph") [Arr. K. Simon for Voice & Piano Trio] [Sung in German]
9. Uwe Schenker-Primus - No. 1, I Wish You Bliss (Sung in English)
10. Uwe Schenker-Primus - No. 2, Wings (Sung in English)
11. Uwe Schenker-Primus - No. 3, Old Spanish Song (From "The Sea Hawk")
12. Uwe Schenker-Primus - No. 4, Old English Song (From "The Sea Hawk")
13. Uwe Schenker-Primus - No. 5, My Mistress' Eyes
14. Sibylle Fischer - Sonett für Wien, Op. 41
15. Sibylle Fischer - Nachts
16. Uwe Schenker-Primus - Der innere Scharm
17. Uwe Schenker-Primus - Österreichischer Soldatenabschied
18. Sibylle Fischer - Ausser
19. Britta Stallmeister - Etwas ganz Persönliches (Arr. H. Fuhlbom & K. Simon for Voice & Piano Trio)
20. Uwe Schenker-Primus - Die Gansleber im Hause Duschnitz
21. Sibylle Fischer - Quinquaginta-Foxtrott

foobar2000 1.6.2 / Dynamic Range Meter 1.1.1
log date: 2021-06-28 06:35:54

––––––––––––––––––––––––––––––––––––––––
Analyzed: Britta Stallmeister / Korngold: Songs, Vol. 2 (1-2)
Sibylle Fischer / Korngold: Songs, Vol. 2 (3-10)
Uwe Schenker-Primus / Korngold: Songs, Vol. 2 (11-21)
––––––––––––––––––––––––––––––––––––––––

DR Peak RMS Duration Track
––––––––––––––––––––––––––––––––––––––––
DR11 -1.00 dB -17.02 dB 2:13 08-Tomorrow, Op. 33 (From "The Constant Nymph") [Arr. K. Simon for Voice & Piano Trio] [Sung in German]
DR13 -1.00 dB -18.89 dB 1:30 19-Etwas ganz Persönliches (Arr. H. Fuhlbom & K. Simon for Voice & Piano Trio)
DR11 -1.00 dB -17.60 dB 4:04 01-No. 1, Sterbelied
DR9 -1.00 dB -15.14 dB 2:40 02-No. 2, Dies eine kann mein Sehnen nimmer fassen
DR12 -1.00 dB -17.26 dB 3:59 03-No. 3, Mond, so gehst du wieder auf
DR11 -1.00 dB -16.56 dB 3:46 04-No. 4, Gefaßter Abschied
DR11 -1.00 dB -15.80 dB 2:46 14-Sonett für Wien, Op. 41
DR12 -1.00 dB -18.87 dB 2:45 15-Nachts
DR10 -1.00 dB -16.14 dB 4:39 18-Ausser
DR13 -1.00 dB -19.31 dB 1:28 21-Quinquaginta-Foxtrott
DR14 -5.44 dB -24.14 dB 4:08 05-No. 1, In meine innige Nacht
DR10 -1.00 dB -15.45 dB 1:59 06-No. 2, Tu ab den Schmerz
DR10 -1.00 dB -14.75 dB 2:33 07-No. 3, Versuchung
DR12 -1.00 dB -20.15 dB 2:24 09-No. 1, I Wish You Bliss (Sung in English)
DR14 -1.00 dB -20.32 dB 2:24 10-No. 2, Wings (Sung in English)
DR13 -5.99 dB -25.37 dB 1:10 11-No. 3, Old Spanish Song (From "The Sea Hawk")
DR12 -1.00 dB -16.79 dB 0:56 12-No. 4, Old English Song (From "The Sea Hawk")
DR10 -1.00 dB -15.70 dB 1:50 13-No. 5, My Mistress' Eyes
DR13 -1.00 dB -17.17 dB 4:06 16-Der innere Scharm
DR11 -1.00 dB -16.86 dB 3:23 17-Österreichischer Soldatenabschied
DR12 -1.00 dB -16.84 dB 3:09 20-Die Gansleber im Hause Duschnitz
––––––––––––––––––––––––––––––––––––––––

Number of tracks: 21
Official DR value: DR12

Samplerate: 44100 Hz
Channels: 2
Bits per sample: 24
Bitrate: 1324 kbps
Codec: FLAC
================================================================================



Thanks to the Original customer.