Tags
Language
Tags

Sonya Bach - Rachmaninov (2021) [Official Digital Download 24/192]

Posted By: pyatak
Sonya Bach - Rachmaninov (2021) [Official Digital Download 24/192]

Sonya Bach - Rachmaninov (2021) [Official Digital Download 24/192]
FLAC (tracks) 24-bit/192 kHz | Front Cover | Time - 68:16 minutes | 2,51 GB
Classical | Label: RUBICON, Official Digital Download

Sonya Bach has won hearts of audiences and critics alike appearing on the most prestigious concert stages of Europe, North America and Asia.

Sonya Bach feels particularly honoured to have been invited to appear in a recital promoted by the Catalunya Government for the victims and survivors of Ravensbruck Women’s Concentration Camp and to be featured as the first classical musician to perform at the newly inaugurated Community Theatre and Arts Centre in Dubai, UAE under the patronage of HH Sheikh Ahmed bin Saeed Al-Maktoum. In 2012, Ms. Bach has performed to commemorate the 50 Years Diplomatic Relations between Korea and Switzerland at the Swiss Residence in Seoul, Korea.

As a devoted performer of rarely performed repertoire, Ms. Bach made the Korean premiere of Turina’s Rapsodia Sinfonica with the Seoul National Symphony Orchestra.

Recently Sonya has successfully toured Korea once again with the SNO featuring Tchaikovsky Piano Concerto No. 1.

Sonya Bach started playing the piano at the tender age of three, gave first public concert at age five and orchestra debut at age nine with the Seoul Symphony Orchestra in her native country. She received musical educations on full scholarships at the Juilliard School in New York and Accademia Pianistica “Incontri col Maestro” in Italy where she has been the youngest pupil of the late Lazar Berman.

A protégé of the late Alicia de Larrocha, she has earned Master in Spanish Music at the Academia Marshall in Barcelona, Spain.

TRACKLIST

01. Sonya Bach - I. Allegro agitato (Revised 1931 version)
02. Sonya Bach - II. Non allegro (Revised 1931 version)
03. Sonya Bach - III. L'istesso tempo – Allegro molto (Revised 1931 version)
04. Sonya Bach - Ten Preludes, Op. 23: No. 4 in D Major, Andante
05. Sonya Bach - Ten Preludes, Op. 23: No. 5 in G Minor, Alla marcia
06. Sonya Bach - Ten Preludes, Op. 23: No. 6 in E-Flat Major, Andante
07. Sonya Bach - No. 1 in B-Flat Minor, Andantino
08. Sonya Bach - No. 2 in E-Flat Minor, Allegretto
09. Sonya Bach - No. 3 in B Minor, Andante cantabile
10. Sonya Bach - No. 4 in E Minor, Presto
11. Sonya Bach - No. 5 in D-Flat Major, Adagio sostenuto
12. Sonya Bach - No. 6 in C Major, Maestoso

foobar2000 1.6.2 / Dynamic Range Meter 1.1.1
log date: 2021-06-25 03:33:43

––––––––––––––––––––––––––––––––––––––––
Analyzed: Sonya Bach / Rachmaninov
––––––––––––––––––––––––––––––––––––––––

DR Peak RMS Duration Track
––––––––––––––––––––––––––––––––––––––––
DR14 -0.23 dB -21.12 dB 9:21 01-I. Allegro agitato (Revised 1931 version)
DR14 -4.74 dB -25.40 dB 7:03 02-II. Non allegro (Revised 1931 version)
DR12 -0.54 dB -17.84 dB 5:51 03-III. L'istesso tempo – Allegro molto (Revised 1931 version)
DR15 -6.21 dB -27.07 dB 4:57 04-Ten Preludes, Op. 23: No. 4 in D Major, Andante
DR12 -0.54 dB -17.48 dB 4:19 05-Ten Preludes, Op. 23: No. 5 in G Minor, Alla marcia
DR15 -7.17 dB -27.93 dB 3:44 06-Ten Preludes, Op. 23: No. 6 in E-Flat Major, Andante
DR15 -5.79 dB -27.74 dB 8:19 07-No. 1 in B-Flat Minor, Andantino
DR13 -1.69 dB -19.90 dB 3:49 08-No. 2 in E-Flat Minor, Allegretto
DR14 -5.13 dB -26.24 dB 6:55 09-No. 3 in B Minor, Andante cantabile
DR12 -1.14 dB -16.93 dB 3:06 10-No. 4 in E Minor, Presto
DR14 -7.94 dB -29.17 dB 4:35 11-No. 5 in D-Flat Major, Adagio sostenuto
DR13 -2.35 dB -18.99 dB 6:19 12-No. 6 in C Major, Maestoso
––––––––––––––––––––––––––––––––––––––––

Number of tracks: 12
Official DR value: DR14

Samplerate: 192000 Hz
Channels: 2
Bits per sample: 24
Bitrate: 5323 kbps
Codec: FLAC
================================================================================



Thanks to the Original customer.