Tags
Language
Tags

Stella Roden - Psalms (2021) [Official Digital Download]

Posted By: pyatak
Stella Roden - Psalms (2021) [Official Digital Download]

Stella Roden - Psalms (2021) [Official Digital Download]
FLAC (tracks) 24-bit/44.1 kHz | Front Cover | Time - 44:59 minutes | 375 MB
Classical, Vocal | Label: Navona, Official Digital Download

The young Russian flutist Matvey Demin (*1993) is one of the most promising artists of his generation: among other things, he was the first ever to win the world-famous Tchaikovsky Competition in the woodwind category. He is also a prize winner of such competitions as international “Aeolus” competition, ARD International Music competition (Munich), international flute competition in Krakow, Unisa International music competition and many other competitions. Since the age of 20 Matvey has held a position of Co-Principal Solo flute in the Tonhalle Orchestra Zurich, where he works under the baton of Paavo Järvi, David Zinman, Bernhard Haitink and many other conductors. Together with his piano accompanist Gleb Koroleff, he presents himself here with a varied solo program that optimally demonstrates his impressive skills.

TRACKLIST

1. Stella Roden - How Marvelous Is Thy Name
2. Stella Roden - I Will Praise Thee, O Lord, with My Whole Heart
3. Stella Roden - The Lord Is My Shepherd
4. Stella Roden - Blessed Is He
5. Stella Roden - Habbakuk's Song
6. Stella Roden - By the Rivers of Babylon
7. Stella Roden - Jehovah Shalom
8. Stella Roden - Oh Lord You Have Searched Me and Known Me
9. Stella Roden - Take My Life and Let It Be
10. Stella Roden - Thanks to God for My Redeemer
11. Stella Roden - When I Survey the Wondrous Cross
12. Stella Roden - Open Your Hearts
13. Stella Roden - As the Sun
14. Stella Roden - The Beloved
15. Stella Roden - I Poured Out Praise to the Lord
16. Stella Roden - As the Eyes of the Father

foobar2000 1.6.2 / Dynamic Range Meter 1.1.1
log date: 2021-07-22 23:30:43

––––––––––––––––––––––––––––––––––––––––
Analyzed: Stella Roden / Psalms
––––––––––––––––––––––––––––––––––––––––

DR Peak RMS Duration Track
––––––––––––––––––––––––––––––––––––––––
DR12 -0.54 dB -19.30 dB 3:08 01-How Marvelous Is Thy Name
DR11 -4.23 dB -22.04 dB 2:16 02-I Will Praise Thee, O Lord, with My Whole Heart
DR13 -4.18 dB -22.72 dB 3:12 03-The Lord Is My Shepherd
DR13 -2.75 dB -20.95 dB 2:42 04-Blessed Is He
DR13 -5.01 dB -23.94 dB 3:16 05-Habbakuk's Song
DR14 -0.52 dB -22.29 dB 4:21 06-By the Rivers of Babylon
DR11 -2.94 dB -20.79 dB 1:38 07-Jehovah Shalom
DR14 -6.73 dB -26.01 dB 3:29 08-Oh Lord You Have Searched Me and Known Me
DR12 -6.14 dB -23.74 dB 3:08 09-Take My Life and Let It Be
DR13 -5.52 dB -23.94 dB 2:54 10-Thanks to God for My Redeemer
DR14 -3.96 dB -23.61 dB 2:48 11-When I Survey the Wondrous Cross
DR14 -1.40 dB -23.30 dB 2:08 12-Open Your Hearts
DR12 -3.00 dB -20.03 dB 2:12 13-As the Sun
DR12 -5.79 dB -23.88 dB 2:10 14-The Beloved
DR13 -3.08 dB -25.65 dB 2:58 15-I Poured Out Praise to the Lord
DR12 -3.77 dB -23.31 dB 2:38 16-As the Eyes of the Father
––––––––––––––––––––––––––––––––––––––––

Number of tracks: 16
Official DR value: DR13

Samplerate: 44100 Hz
Channels: 2
Bits per sample: 24
Bitrate: 1135 kbps
Codec: FLAC
================================================================================



Thanks to the Original customer.