Tags
Language
Tags

String Noise - Way (2022) [Official Digital Download 24/96]

Posted By: pyatak
String Noise - Way (2022) [Official Digital Download 24/96]

String Noise - Way (2022) [Official Digital Download 24/96]
FLAC (tracks) 24-bit/96 kHz | Front Cover | Time - 60:25 minutes | 1007 MB
Classical | Studio Master, Official Digital Download

String Noise (Pauline Kim Harris and Conrad Harris, violins) returns for their second release on New Focus, a follow up to Eric Lyon's "Giga Concerto" which featured them as soloists with the International Contemporary Ensemble. "Way" highlights their dedicated commissioning work with some of the new music scene's most inventive composers. Featuring works by Alex Mincek, Catherine Lamb, and Lou Bunk, String Noise explores vanguard sonorities and textures, demonstrating their prowess for delivering challenging repertoire with expressivity and understanding. String Noise, New York’s most daring violin duo, has expanded the repertoire with over 50 new works since their debut at Ostrava New Music Days in 2011. More than a decade later, they continue to break down the boundaries of traditional expectations and inspire innovative compositions, displaying formidable virtuosity, integrating multimedia art, electronics, improvisation, video projections, opera, and dance.

TRACKLIST

1. String Noise - Way
2. String Noise - I. —
3. String Noise - II. —
4. String Noise - III. —
5. String Noise - IV. —
6. String Noise - V. —
7. String Noise - (In) Tone

foobar2000 1.6.2 / Dynamic Range Meter 1.1.1
log date: 2022-05-14 17:08:21

––––––––––––––––––––––––––––––––––––––––
Analyzed: String Noise / Way
––––––––––––––––––––––––––––––––––––––––

DR Peak RMS Duration Track
––––––––––––––––––––––––––––––––––––––––
DR11 0.00 dB -16.01 dB 28:30 01-Way
DR19 -1.04 dB -26.48 dB 6:59 02-I. —
DR18 -3.76 dB -31.51 dB 6:31 03-II. —
DR14 -2.62 dB -23.07 dB 2:45 04-III. —
DR12 -1.00 dB -15.66 dB 2:01 05-IV. —
DR18 -17.74 dB -45.74 dB 1:39 06-V. —
DR10 -0.99 dB -14.45 dB 11:59 07-(In) Tone
––––––––––––––––––––––––––––––––––––––––

Number of tracks: 7
Official DR value: DR15

Samplerate: 96000 Hz
Channels: 2
Bits per sample: 24
Bitrate: 2511 kbps
Codec: FLAC
================================================================================



Thanks to the Original customer.