Tags
Language
Tags
February 2023
Su Mo Tu We Th Fr Sa
29 30 31 1 2 3 4
5 6 7 8 9 10 11
12 13 14 15 16 17 18
19 20 21 22 23 24 25
26 27 28 1 2 3 4

Talk Talk - Talk Talk (2022 Digital Master) (2022) [Official Digital Download 24/96]

Posted By: pyatak
Talk Talk - Talk Talk (2022 Digital Master) (2022) [Official Digital Download 24/96]

Talk Talk - Talk Talk (2022 Digital Master) (2022) [Official Digital Download 24/96]
FLAC (tracks) 24-bit/96 kHz | Front Cover | Time - 14:39 minutes | 315 MB
Rock, Synthpop | Studio Master, Official Digital Download

Talk Talk was a British band that began in the early 1980s with synthpop and new wave and achieved great commercial success until the mid-1980s. After that, the band changed artistically and released two avant-garde works between 1988 and 1991, which had an important influence on art and post-rock and inspired numerous subsequent musicians. The releases were on the labels EMI, Polydor and Parlophone.

TRACKLIST

01. Talk Talk - Talk Talk (Digital Master)
02. Talk Talk - ? (aka Question Mark) (Digital Master)
03. Talk Talk - Talk Talk (Extended Mix, Digital Master)
04. Talk Talk - Talk Talk (David Jenson Show BBC Radio Session 18/11/1981)

foobar2000 1.6.2 / Dynamic Range Meter 1.1.1
log date: 2022-04-18 19:23:18

––––––––––––––––––––––––––––––––––––––––
Analyzed: Talk Talk / Talk Talk
––––––––––––––––––––––––––––––––––––––––

DR Peak RMS Duration Track
––––––––––––––––––––––––––––––––––––––––
DR8 -0.10 dB -10.25 dB 3:20 01-Talk Talk (Digital Master)
DR8 -0.10 dB -9.67 dB 4:07 02-? (aka Question Mark) (Digital Master)
DR8 -0.10 dB -11.56 dB 4:35 03-Talk Talk (Extended Mix, Digital Master)
DR8 -0.10 dB -9.41 dB 2:38 04-Talk Talk (David Jenson Show BBC Radio Session 18/11/1981)
––––––––––––––––––––––––––––––––––––––––

Number of tracks: 4
Official DR value: DR8

Samplerate: 96000 Hz
Channels: 2
Bits per sample: 24
Bitrate: 3017 kbps
Codec: FLAC
================================================================================



Thanks to the Original customer.