Tags
Language
Tags

The Zappa Band - Canandaigua (2021) [Official Digital Download]

Posted By:
The Zappa Band - Canandaigua (2021) [Official Digital Download]

The Zappa Band - Canandaigua (2021) [Official Digital Download]
FLAC (tracks) 24-bit/48 kHz | Front Cover | Time - 47:36 minutes | 626 MB
Rock | Label: ZB Touring, Official Digital Download

Starting in the late ’60s, Robert Fripp and Frank Zappa forged reputations as two of rock’s most visionary, idiosyncratic and finicky bandleaders, sharing disdain for the industry and a knack for drafting talented associates. Zappa died in 1993, leaving others to carry his legacy, while fellow guitarist Fripp continued to recast and dissolve lineups of King Crimson, hatching its current septet incarnation in 2014.

After a year’s pandemic delay, King Crimson performed at the Leader Bank Pavilion on Friday with the Zappa Band (an estate-sanctioned, alumni-based unit), and both ensembles made the best of treating old catalogs as historical repertory.

The Zappa Band couldn’t do much else, though some songs in its 50-minute set (“Alien Orifice,” “Andy”) were less-than-obvious choices. It was hard to top the kickoff of “Zombie Woof” and “Peaches en Regalia,” where drummer Joe Travers tightly anchored the contrapuntal charms of that instrumental — before he gave Crimson’s Jeremy Stacey a brief turn at the drum kit for “Village of the Sun.”

TRACKLIST

1. The Zappa Band - Intro - Canandaigua (Live)
2. The Zappa Band - Zomby Woof (Live)
3. The Zappa Band - Peaches En Regalia (Live)
4. The Zappa Band - I Ain't Got No Heart (Live)
5. The Zappa Band - Marqueson's Chicken (Live)
6. The Zappa Band - Village Of The Sun (Live)
7. The Zappa Band - Echidna's Arf (Of You) (Live)
8. The Zappa Band - City Of Tiny Lites (Live)
9. The Zappa Band - Alien Orifice (Live)
10. The Zappa Band - Florentine Pogen (Live)
11. The Zappa Band - Andy (Live)

foobar2000 1.6.2 / Dynamic Range Meter 1.1.1
log date: 2021-09-25 08:57:18

––––––––––––––––––––––––––––––––––––––––
Analyzed: The Zappa Band / Canandaigua
––––––––––––––––––––––––––––––––––––––––

DR Peak RMS Duration Track
––––––––––––––––––––––––––––––––––––––––
DR16 -0.39 dB -34.04 dB 0:25 01-Intro - Canandaigua (Live)
DR14 -1.03 dB -16.57 dB 4:26 02-Zomby Woof (Live)
DR14 -1.15 dB -16.86 dB 3:14 03-Peaches En Regalia (Live)
DR12 -1.33 dB -15.94 dB 2:20 04-I Ain't Got No Heart (Live)
DR14 -0.69 dB -17.11 dB 4:24 05-Marqueson's Chicken (Live)
DR15 -0.10 dB -16.47 dB 3:10 06-Village Of The Sun (Live)
DR14 -0.36 dB -15.95 dB 4:04 07-Echidna's Arf (Of You) (Live)
DR14 -0.83 dB -16.68 dB 6:15 08-City Of Tiny Lites (Live)
DR14 -1.01 dB -16.68 dB 4:27 09-Alien Orifice (Live)
DR13 -0.81 dB -15.78 dB 8:05 10-Florentine Pogen (Live)
DR14 -0.25 dB -16.46 dB 6:55 11-Andy (Live)
––––––––––––––––––––––––––––––––––––––––

Number of tracks: 11
Official DR value: DR14

Samplerate: 48000 Hz
Channels: 2
Bits per sample: 24
Bitrate: 1606 kbps
Codec: FLAC
================================================================================



Thanks to the Original customer.